&title=Fraq
&artist=owl*tree feat. べんざ
&first=0
&des=Dororo
&lv_6=13+
&inote_6=(221)
{1},
{12},,,,,,,,,,,,
{12}2h[4:1],,,3h[4:1],,,4h[4:1],,,5h[4:1],,,
{12}6,,6^3[8:1],,,,,,,24,,,
{12}1h[4:1],,,3h[4:1],,,4h[4:1],,,6h[4:1],,,
{12}7,,7-3[8:1],,,,,,1,2xb/8xb,,,
{12}7h[4:1],,,6h[4:1],,,5h[4:1],,,4h[4:1],,,
{12}3,,3^6[8:1],,,,,,,75,,,
{12}8h[4:1],,,A3,E4,E5,A5,,,A1,E1,E8,
{12}A7,,,4,,4w8[8:1],,,,,,,
{12}2x/6x,,,B6/B5/E6,,,B2/E3/B3,,,E8/B7/B8,,,
{12}3,,3>5[3:1],,,8h[3:1],,,,,,,
{12}4-1[8:1]/7,,,,,,5-8[8:1]/2,,,,,,
{12}1x/2x,,3x/8x,,4x-1[8:1]/7x,,5x-8[8:1]/6x,,,,,,
{12}2,,2,8,,8,6,,6,4,,4,
{12}3,,,25,,2v8[8:1]/5v8[8:1],,,,,,,
{12}8xb,,,B2/B3,,,B6/B5,,,1x/7x,,,
{12}4,,4^1[8:1]*^7[8:1],,,,,,2xpp5>7[24:50],6x-1b[8:1],,,
{12}6b,,,,,,,,,,,,
{12},,,,,,,,,,,,
{12}6,,,6,,5,6,,5,6,,,
{12}3,,7,3,,7,3,,7v6-4>5[24:50],3-8b[8:1],,,
{12}3b,,,,,,,,,,,,
{12},,,,,,,,,,,,
{12}1,,,1,,4,2,,5,4,,7V58[24:14],
{12}5v4-1b[24:13],,,,,,,,,,,,
{12}2-5[8:1]/7,,,,,,1^6[8:1]/4,,,,,,
{12}2-5[8:1]/7,,,,,,1^6[8:1]/4,,,5qq2[4:3]*pp8[4:3],,,
{12}5x,,,,,,,,,,,,
{12}2,,2,4,,4,5,,5,7,,,
{12}7-4[8:1]/2,,,,,,8^3[8:1]/5,,,,,,
{12}7-4[8:1]/2,,,,,,8^3[8:1]/5,,,4>6b[2:1],,,
{12}4x,,,,,,5-8[8:1],,,4-1[8:1],,,
{12},,,,,,,,,1p8[4:7],,,
{12}8^5b[4:3],,,,,,,,,,,,
{12},,,,,,,,,7p6[4:7],,,
{12}6^3b[4:3],,,,,,,,,,,,
{12},,,,,,,,,5p4[4:7],,,
{12}4^1b[4:3],,,,,,,,,,,,
{12},,,,,,,,,3p2[4:7],,,
{12}2^7b[4:3],,,,,,,,,,,,
{12},,,8x,,,8x,,,,,,
{12}7V58[2:1],,,,,,3V58[2:1],,,,,,
{12}7V58[2:1],,,,,,3,,,,,,
{12}1V35[2:1],,,,,,1V37[2:1],,,,,,
{12}5x,,5x,,5x,,4xb/6xb,,,37,,,
{12}2V41[2:1],,,,,,6V41[2:1],,,,,,
{12}2V41[2:1],,,,,,6,,,,,,
{12}78,,,18,,,21,,,3>6q4[4:3]/Chf[2:1],,,
{12},,,,,,,,,,,,
{12}3^6[8:1]/5,,,6^3[8:1],,,3,,,,,7,
{12}5,,5,6,,4/7-4[8:1],,,8x,8x,,,
{12}2,,2,4,,3,5,,2,4,,1>7[3:1],
{12},,,B4f,,,,,,1x/8x,,,
{12}2^5[4:1]/7,,,5^8[4:1],,,8^3[4:1],,,3,,,
{12}4,,4,3,,2-5[8:1]/5,,,1x,1x,,,
{12}6x/7x,,,58,,5-7[8:1]/8-6[8:1],,,,,,,
{12}5x/8x,,,14,,1-5[8:1]/4-8[8:1],,,,,,,
{12}1x,,4,2,,5,3,,6,4,,7,
{12}5-8[8:1],,,6-2[8:1],,,1-4[8:1],,,8,,,
{12}3,5,4,6,2,4,1,7,4,6,2,4,
{48}8xb,B8f,C,,{12},,,,,,,,37,,,
{12}2^5[8:1],,,1^6[8:1],,,3,,3q5[3:1],,,4,
{12},,,8-4[8:1],,,4-8[8:1],,,8,,,
{12}2^5[8:1],,,1^6[8:1],,,4,,4p2[3:1],,,7,
{12},,,5-1[8:1],,,1w5[8:1],,,,,,
{12}37,,6-4[8:1]/4,,,6,3-7[8:1],,,37,,8-2[8:1],
{12},,8,4-6[8:1],,,46,,7,8,,8,
{12}6,,,1,,3,7,,1pp3[8:1]*qq7[8:1],,,1b,
{12},,,8-4[8:1],,8,2-6[8:1],,2,5,,,
{12}7^4[8:1],,,8^3[8:1],,,6,,6p4[3:1],,,5,
{12},,,1-5[8:1],,,5-1[8:1],,,1,,,
{12}7^4[8:1],,,8^3[8:1],,,5pp1[8:3],,,4-2[8:1],,,
{12},,,3x-5s1[3:1]/8xh[2:1],,,,,,,,,
{12}2xb/6^3[8:1],,,,,,1/2x,,2/3x,,3/4x,,
{12}4/5x,,5/6x,,6/7x,,8xV24[8:1]/7V13[8:1],,,,,,
{12}5x/6x,,5x/6x,,,7,1,,,3x/4x,,3x/4x,
{12},,2,8-5[8:1],,6,8b,,,,,,
{12}2-4[8:1]/4,,,,,,1-5[8:1]/5,,,,,,
{12}8-4[8:1]/4,,,,,,7-5[8:1]/5,,,,,,
{12}E3,E4,A4,B1,C,B5,A8,E8,E7,E3,E4,A4,
{12}B1,C,B5,A8,E8,E7,E5/D5f,,,,,,
{12}3-5[8:1]/5,,,,,,2-6[8:1]/6,,,,,,
{12}1-5[8:1]/5,,,,,,8-6[8:1]/6,,,,,,
{12}E2,,,B6/E7,,,E5,,,E3/B3,,,
{12}E8,,,A4/D5/A5,,,Cf,,,,,,
{12}7-5[8:1]/5,,,,,,8-4[8:1]/4,,,,,,
{12}1-5[8:1]/5,,,,,,2-4[8:1]/4,,,,,,
{12}3x,,E2/E5,,,,5x,,E7/E4,,,,
{12}4x,,E3/E6,,,,6x,,E8/E5,,,,
{12}6-4[8:1]/4,,,,,,7-3[8:1]/3,,,,,,
{12}8-4[8:1]/4,,,,,,1-3[8:1]/3,,,,,,
{12}4<8[4:1],,,8>4z8b[1:1]*>4-6-2-8[1:1],,,,,,,,,
{12},,,,,,,,,,,,
{12}B2,,,5,,5,E4,,,6,,,
{12}B2,,,5,,5,E4,,,6,,,
{12}B2,,,8,,8,E4,,,6,,,
{12}B2,7x,8x,7x,,,E4,6x,5x,6x,,,
{12}E1,,,7,,7,B2/E3,,,5,,,
{12}E1,,,6,,6,B2/E3,,,4,,,
{12}E1,,,5,,5,B2/E3,,,6,,,
{12}4bb^1[8:1],,,4b^7[8:1],,,4b-8b[8:1],,,,,,
{12}B7,,,4,,4,E6,,,3,,,
{12}B7,,,4,,4,E6,,,3,,,
{12}B7,,,1,,1,E6,,,3,,,
{12}B7,2x,1x,2x,,,E6,3x,4x,3x,,,
{12}E1,,,2,,2,B7/E7,,,4,,,
{12}E1,,,3,,3,B7/E7,,,5>1b[2:1],,,
{12}6b,,,,,,6,,5,,4,,
{12}5-8[3:1],,4,,3,,,,,4<8b[2:1],,,
{12}3b,,,,,,3,,4,,5,,
{12}4,,5,,6,,5,,6,,7,,
{12}6b,,,1-4[8:1],,,1-6[8:1],,,1q4b[4:3],,,
{12},,,,,,,,,,,,
{24}D3,D4,D5,,{12},,,,,,,,,,
{12},,,,,,,,,,,,
{24}D7,D6,D5,,{12},,,,,,,,,,
{12},,,,,,4h[2:1]/5,,,,,,
{12}3,4,3,4,3,4,2,4,2,4,2,4,
{12}1,4,1,4,1,4,8,4,8,4-1[8:1],8,4,
{12}7b,,,8,,6,2,,8qq6[8:1]*pp2[8:1],,,8b,
{12},,,1-5[8:1],,1,7-3[8:1],,7,4,,,
{12}2-7[8:1],,,6-3[8:1]/2,,,16,,1qq4[3:1],,,4,
{12},,,6x-2[8:1],,,2-6[8:1],,,6,,,
{12}3-6[8:1],,,7-2[8:1]/3,,,5<3[8:3]/7,,,8-4[8:1],,,
{12},,,2xh[2:1]/5xpp4[8:3],,,,,,,,,
{12}E5f/3^6[8:1],,,,,,7x/8,,7/6x,,6/5x,,
{12}4x/5,,3x/4,,2x/3,,1x-3v4[8:1]/2-4[8:1],,,,,,
{12}Cf/6^3[8:1],,,,,,1/3x,,2/4x,,3/5x,,
{12}4/6x,,5/7x,,6/8x,,1xs5[8:1]/7v5[8:1],,,,,,
{12}E1f/3^6[8:1],,,,,,8/5x,,4x/7,,3x/6,,
{12}2x/5,,1x/4,,3/8x,,2-5[8:1]/7x-4[8:1],,,,,,
{12}36,,1/2h[4:1],,,4,2,,,36,,7h[4:1]/8,
{12},,5,7,,2,6,3,5,8b,,,
{12}56,,1h[4:1]/4,,,2,1,,,34,,8h[4:1]/5,
{12},,7,8,,1V37b[24:7],5-1[4:1],,,,,,
{12},,,,,,,,,,,,
{12},,,,,,,,,,,,
{12},,,,,,,,,,,,
{12},,,,,,,,,,,,
