&title=James Franco
&artist=Polyphia
&first=0.285
&des=JFK
&lv_5=14
&inote_5=(110)
{4}
5bV74[4:2]`2bqq3[4:2],,,,
{16}
2/6h[16:3],,,5,4/7,,5h[16:3]/8,,,7,5,5,4,4,2,,
{4}
5bqq1[4:2]/1bV73[4:2],,,
{16}
,,4,,3/6,,1,1,8,8,4h[16:3],,,5,2,2,7,4,4,,
{16}
2-6[8:1]/6,,,,2/1V75[4:1],,,3,1,,4,,1,,6,,
{16}
5/7,,6,6,5,4,4,,2,4,
{48}
2,3,4,6,,,
{16}
5,7,6,8,
(73.333)
{16}
6bV41[4:1]*V41[4:1],,,,
(220)
{4}
,,,,
{8}
8,8,
(110)
{16}
1/7-3[8:1],,,2,7,,1,,4,2,
{48}
4,5,6,
{16}
3,7,4,7,4,
{16}
8p4[8:1],,1/2,,8,,2,3,
{32}
5,6,7,,4,,4,,
{16}
8,3,1,2,8pp7[4:1],,1/7,,8,6,6,,5,1,6,6,
{32}
2,3,4,,
{16}
7,5,6h[8:1],,
{24}
5,6,5,7,,,4,5,4,
{16}
6,6,4,4,7p4[4:1],1,,2h[16:3],7,,,,
{16}
1,3,2,4,
{24}
3,5,3b,6,4,6,
{16}
2>4[8:1],2,8,8,2qq8[8:1],,,,2>5[8:1]/8<5[8:1],,,,2V84[4:1]/8,,,,
{8}
2,6-1[8:1],,4,3,2pp4[8:1]*p6[8:1],,2,,3b,
{8}
2qq2[4:1],,2qq5[4:1],5b,6,7V51[4:1],8,7,
{16}
3,,,2,3/8,,4/6h[16:3],,,7,6h[8:1],,5,6,3,6,
{16}
1<7[16:3],,,7<4[16:3],,,4>8[16:3],,,,8,,7,,,,6-8[16:3],,,8v3[16:3],,,3V57[16:3],,2,,1,,8,,1,,
{16}
2,2,2,8,8,8,6,6,7,6,6,6,
{32}
8,7,6,,
{16}
4,4,5<8[8:1],,1,1,
{24}
2,3,4,5,6,7,8,1,2,3/6,4/7,5/8,1,2,3,4,5,6,
{16}
2/7-4[16:1],,,7h[16:3],,,2-5[16:1],,,2h[16:3],,,7-4[16:1]*-3[16:1],,,7,,,,
{16}
5>2[16:1]/5<8[16:1],,,5,,,,1,,81,,
{24}
2,3,4,
{16}
1-6[16:1]/5-2[16:1],,,1/5,,,3<6[16:1]/7>2[16:1],,,3/7,,,
{16}
4/8,4,4,4,3/7,7,3/7,3,
{24}
2,1,8,7,6,5,3,2,1,8,7,6,4,3,2,1,8,7,
{16}
6h[8:1]/4,,8,,2h[8:1]/7,,3,,1-3[16:1],1-4[16:1],4,4,,,,,
{16}
5-7[16:1]*-8[16:1],,4,4,5,,1,,2-6[16:1],3-6[16:1],4,,2,3,,,
{48}
8-4[16:1],1,2,,,,8-5[16:1],7,6,,,,
{16}
8,,8,,3,3,5,5,
{24}
2-6[32:3],1,8,6-3[32:3],7,8,
{8}
2,8-3[32:3]*-4[32:3],7,8,
{24}
,,2,2/5,,,1-3[32:3]*-4[32:3]/7,,2/8,,,,
{4}
1-7[32:3]*-6[32:3],1-5[32:3],1V38[4:1],
{8}
8-4[32:3],4-7[32:3],7-5[32:3],5,8,8<4[16:3],
{24}
,,3,3,,,1,,,2,,,
{24}
2,3,4,5,3,4,5,6,2,3,5,6,7,3,4,6,7,8,2,3,4,5,6,7,
{24}
2,3,4,8,7,6,1,2,3,7,6,5,3,2,1,8,7,6,2,1,8,6,5,4,
{4}
1h[4:3]/3h[4:3],,,
{8}
,2/4,
{16}
3/5,,1/7,,2/8,1,2/8h[8:3],,3,,5,,
{24}
6,7,8,7/1,6,5,
{16}
3,3,4,2,7,7,5,6,4/7,,3/8,3,1,2,2,8,1,1,2,3,4,4,5,6,7,7,8,8,
{24}
2,3,4,7,6,5,
{8}
3-7[32:3]/4,1/2,2/3,8,6-2[32:3]/7,4/5,5/6,
{16}
3,3,1,8,4,4,7,6,2,2,5,4,8,8,
{24}
3,4,5,6,7,8,
{24}
3b,1,2,1,2,8,2,1,3b,1,2,8,
{16}
3,3,7,7,4,4,6,6,3,5,3,5,7,5,7,5,7,1,7,1,3,1,3,1,
{16}
2q6[32:3]/8,,1/7,,2/8,,7,7,
{32}
5,4,3,,
{16}
6,6,2,5,1,7,8pp7[4:1],,2/7,,8,4,4,,3,2,6,5,
{32}
1-5[32:3],2,3,,7,,7,,
{24}
1>4[32:3],,,8,7,6,1,,,7,6,5,
{16}
1,6,3,3,7qq4[4:1],2,,2h[16:3],7,,,,3,3,5,5,3b/6,3/6,,,2,1,2,1,
{8}
8<5[32:3]/3qq1[8:1],,8>3[32:3]/3,,8/6pp6[16:3],,6/4>4[4:1],3,
{8}
4pp3[4:1],6,8,1w5[32:3],,1,,8/2,
{8}
1-4[32:3]/7-4[32:3],,1>6[4:1]/7,,7,8,1<4[4:1],2,1pp8[4:1],,1,5,
{24}
6,,6,1,,1,8,,8,3,,,
{16}
2h[16:3],,,4h[16:3],,,5h[4:1],,,,6,,2/7,,,,8h[16:3],,,1h[16:3],,,3h[4:1],,,,4,,2,7,,,
{16}
3h[16:3],,,5h[16:3],,,8>5[4:1],,,,6,,8,,,,1h[16:3],,,2h[16:3],,,3<8[4:1],,
{24}
,,1,1,,2,2,,,,,,
{16}
3qq1[16:3],,,1s5[4:1],,,6,,,,7,,8,,1,1,3,3,8v5[8:1],,5z1[4:1],,2,,,,3,,4,,
{16}
5s1[4:1]*z1[4:1],,,,5,,,,,,,,1/7,,3/6,,2qq4[4:1],,
{16}
,,4qq5[4:1],,5,,6,,
{24}
,,7b,,,7,5,,3/7,,,,
{48}
1<6[32:3],2,3,,,,,,,,,,1-5[32:3],2,3,,,,,,,,,,1-6[32:3],2,3,,,,,,,,,,1V75[8:1],2,3,,,,,,,,,,
{48}
1qq7[8:1],2,3,4,,,,,,,,,1<5[8:1],2,3,4,,,,,,,,,1v7[8:1],2,3,4,,,,,,,,,1s5[4:3]*v3[8:3],2,3,4,,,,,,,,,
{4}
,,,,5z1[8:5]/4V62[8:5],,,,
{16}
8,2,7,1,6,8,5,
{32}
7,6,5,4,3,2,7,,7,,4,,5,,4,,5,,
{16}
3,4,2,4,1,4,8,5,7,6,5,8,
{24}
4,3,2,1,8,7,6<3[8:3]/5,,,,,,,,,,,,,,,
{16}
6,7,8,1,2,3,7,8,1,2,
{24}
6,7,8,1,2,3,5,6,7,8/1,2,3,4/8,7,6,5/4,3,2,
(36.8)
{4}
1b-4[64:1]/6b>4[64:1],
(440)
{4}
1/6,,,,
(110)
{8}
8-5[32:3]*V26[16:3],,8,,7w3[32:3],,7,,
{24}
1,2,3,8,7,6,4,3,2,5,6,7,1,2,3,6,5,4,2b,1,8,6,7,8,
{24}
1/2,3,4,5,6,7,8/5,6,7,8/2,3,4,5,6,7,8,1,2,3/7,,,1/5,,,
{24}
2,3,4,6,5,6,2,3,4,6,5,6,1,2,3,5,4,5,1,2,3,5,4,5,
{24}
2,1,8,7,6,5,4/8,7,6,5/1,2,3,4,5,6,7,8,1,2/6,,,4/8,,,
{24}
3,4,3,6,5,6,3,4,3,5,4,5,2,4,2,6,5,6,3,4,3,7,5,7,
{24}
3,4,2,6,5,6,2,4,1,8,2,7,5,6,4,7,3,8,1,4,2,5,3,6,
{8}
1q5[32:3],2/8,
{16}
1,,6,6,
{32}
5p1[32:3],4,3,,6,,6,,
{16}
5,7,7,7,2>5[32:3],,1/7,,2q6[32:3],8,8,,2qq2[4:1],7,7,7,2V46[16:3],,6,7,
{24}
8,,,1,8,7,4h[8:1],,,6,5,4,
{16}
2,2,3,3,1pp6[4:1],1,,8,1,,6,,5-8[32:3],5-3[16:1],1,1,,,,,1,2,1,2,
{4}
3>8[32:3]/8>3[32:3],3v8[32:3]/8v3[32:3],3V58[4:1]/8,
{8}
8V63[4:1],1,2b,1,8,1bqq2[4:1],,1/2>7[4:1],,3,1>4[32:3]*<7[32:3],,1pp8[4:1],,
{8}
6,7-3[32:3],6,7,
{24}
5,,5,4-1[32:3]/6-1[32:3],,,
{8}
5,4>6[4:1]/6,,,,,
{4}
2<7[32:3]/7>2[32:3],2v7[32:3]/7v2[32:3],2V47[16:3]/7V52[16:3],2/7,
{8}
1/8v3[32:3],7/8qq5[8:3],8,8v3[32:3],,8,,2/6,
{4}
1pp8[4:1],8pp7[4:1],
{8}
6V41[16:3],4,6,8,8v3[32:3]*v5[32:3],,8,1w5[32:3]*w5[32:3],,1,1V75[4:4]/2-6[4:3],,1b/2b,,,,,,,,
