&title=ボイドロイド
&artist=r-906
&first=0
&des=@MMFC
&lv_5=13
&inote_5=(156){2},,,,,,,,
{8},
{32},
{8},,,,6h[8:1]/4,,3,5,3,,3/4-8[2:1],,,,,,,,,,3h[8:1]/5,,6,4,6,,6/5z1[2:1],,,,,,5-1b[8:1],,,,28,37,
{16}6,5,,5,7,,2,4,3,,51,,6-8[8:1],,6,,2-4[8:1],,2,,1<6[8:1],,,,1x/4x,,E4,,E3,,E2,,E6,,E7,,E8,,A3,,A2,,A1,,A6,,A7,,A8,,1>4[4:1],,1,,1,,5,,6,,7h[8:1],,3,4,,5,4,,6,5,,4,5,,36,,2,1,3,8,4,7,5,6,5-2[8:1],,6,,7h[8:1],,,,E8,,E7,,E6,,E2,,E3,,E4,,A7,,A6,,A5,,A2,,A3,,A4,,5x-2[8:1]*-8[8:1],,,,,,,,7xh[8:1],,3,4,,5,4,,6,5,7v4[8:1],,4,,3,,2xh[8:1],,6,5,,4,5,,3,4,2v5[8:1],,5,,6,,7x,,6x/5x,,3x/4x,,2x,,8x,2,8,3,8x,4,8,5,7-4[8:1],,6x,,7/3V15[8:1],,2,,3x/4x<7[8:1],,,,4x/3x,,,,8<1[8:6]/2,,,E1,,,E3,,,B8,,,B3,,B2,,8<3[8:5],,,E3,,,E1,,,B2,,,B3,,B4,,5h[8:8],,,,
{8},,,,,,8,17,6-8[8:1]/2-8[8:1],35,2/6>3[8:1],,36,2,
{16}1b-5[8:1],,,1v7[8:1],,,1v3[8:1],,,1,,,6,,7,,8-4[8:1],,1,,28,,3,,2-6[8:1],,1,,28,,7,,8xpp8[16:3],,,8x<1[16:3],,,1xbpp1[16:4],,,,,,3h[8:1],,,,3,,4,,85,,7,,6v8[8:1],,5,,36,,2,,1b-5[8:1],,,1v7[8:1],,,1v3[8:1],,,1,,,8,,7,,6-2[8:1],,5,,46,,3,,4-8[8:1],,5,,46,,7,,6xpp6[16:3],,,6x>7[16:3],,,7xbpp7[16:4],,,,,,2h[8:1],,,,3,,8,,74,,6,,2-8[8:1],4,3,,25,,,,6h[8:1]/1,,,,2,,7,,2-4-6-8-2>4<6<8>2[8:8],,,,8h[8:8],,,,
{4},,,,
{16}7h[8:1]/4,,,,3,,6,,3-1-7-5-3>1<7<5>3[8:8],,,,5h[8:8],,,,
{4},,,,
{16}2h[8:1]/5,,,,6,,3,,6-8-2-4-6<8>2>4<6[8:8],,,,4h[8:8],,,,
{4},,,,
{16}5h[8:1]/3,,,,2,,4,,2V85V72b[8:8],,,,Ch[1:1],,,,
{4},,,,
{16}4h[16:3],,,1h[16:3],,,6h[16:3],,,5h[16:3],,,8,,8,,7-3[16:2],,5,,7,,4,,7-5[8:1],,3,,7,,4,,3h[16:3],,,8h[16:3],,,5h[16:3],,,6h[16:3],,,1,,1,,2-6[8:1],,4,,2,,5,,2-4[8:1],,6,,2,,5,,6x,,6x-4[8:1],,,,6x/2x-6[8:1],,,,2/8-2[8:1],,4,,4,,3x,,3xv8[8:1],,,,3bx/4xb<1[4:1],,,,E2,,E3,,E4,,4xbh[8:1],,8,5,7h[8:1],,4,8,5h[8:1],,8,4,7-3[8:1],,4-1[8:1],,7,,4<7[8:1],,,,2,,2-6[8:1],,,,28,,,,7xh[8:1],,5,5h[8:1],,2,2h[8:1],,8,8h[8:1],,6,6h[8:1],,1,,2x-5[8:1],7,1,8,2x,,8x,8,4,7,3,6,2xh[8:1],,5,5,3x-8[8:1],,2,,3x/4x,,6x,6,1,4,2,5,3x,,24,,6x,,75,,1x-6[8:1]/8x-6[8:1],,2x,,1x-3[8:1]/8x-3[8:1],,,,1x<2[8:8]/8x,,,,E4,,,B1,,,E3,,,B8,,,E3,,E2,,1<3[8:6],,,E3,,,E1,,,B4,,,B3,,B2,,1xb-4[16:1],,,5x-8[16:1],,,2xb-5[16:1],,,6x-1[16:1],,,4bw8[8:1],,,,B4,,,,,,Ch[8:3],,,,,,,,,,1b-5[8:1],,,1v7[8:1],,,1v3[8:1],,,1,,,6,,7,,8-4[8:1],,1,,28,,3,,2-6[8:1],,1,,28,,7,,8xpp8[16:3],,,8x<1[16:3],,,1xbqq1[16:4],,,,,,3h[8:1],,,,3,,4,,85,,7,,6v8[8:1],,5,,36,,2,,1b-5[8:1],,,1v7[8:1],,,1v3[8:1],,,1,,,8,,7,,6-2[8:1],,5,,46,,3,,4-8[8:1],,5,,46,,7,,6xpp6[16:3],,,6x>7b[16:3],,,7xbqq7[16:4],,,,,,2h[8:1],,,,3,,8,,74,,6,,5s1[8:1]/3z7[8:1],,,,,,,,8b-4[8:1],,,8v6[8:1],,,8v2[8:1],,,8,,,7,,6,,5-3[8:1]/1,,2,,5-7[8:1],,8,,5-3[8:1],,2,,5-7[8:1],,8,,1x>4[16:3],,,4xq5[16:3],,,5xbq1>3[16:3],,,,,,6h[8:1],,,,4-6[8:1],,7,,4-2[8:1],,1,,4-6[8:1],,7,,4-2[8:1],,1,,8b-4[16:2],,,8v2[16:2],,,8v6[16:2],,,8,,,3,,4,,5/1-3[8:1],,4,,1-7[8:1],,6,,1-3[8:1],,4,,1,,6,,7x-4[16:1],,,1x-6[16:1],,,5x<4[8:2],,,,,,1hb[4:1],,,,5,,6,,74,,8,,1p5[8:1]/3>8[8:1],,,,3/1w5[8:1],,,,1b,,,,
{2},,,,,,,,,,,,,,,
{16},,,,2b/7b,,,,,,
