&title=qliphot
&artist=Xi + Sta
&first=0.11
&des=Akarizu
&lv_5=14
&inote_5=(180){4}Cfh[4:3],{8},,,,,,3,
{16}5,4,,,{8}3/6,{16}7,5,{8}6,{16}2,4,{8}3,
6,{16}4,5,{8}4,6/3,{16}1,4,{8}3,{16}8,5,{8}6,
4/5,{16}4,5,{8}4,{16}6,3,{8}6,{16}2,7,{8}2,8,
{16}1,2,3,4,8,7,6,5,1,2,3,4,5,6,7,8,
{8}6/1,{16}4,5,{8}4,6/3,{16}2,4,{8}3,{16}7,5,{8}6,
3,{16}5,4,{8}5,3/6,{16}8,5,{8}6,{16}1,4,{8}3,
5/4,{16}5,4,{8}5,{16}3,6,{8}3,{16}7,2,{8}7,1,
{16}8,7,6,5,1,2,3,4,8,7,6,5,4,3,2,1,
{4}3/8-5[4:1],{8}1,2,3,4qq8[8:3],,8,
7,6,5,4pp7[8:3],3,2,1,8,
,1/6x,2,3,4/5,6,7,8,
1>4[8:1],8,7,6,5<8[8:1],4,3,2,
{4}1-4[4:1],{8}8,7,6,5pp1[8:3],,1,
2,3,4,5qq2[8:3],6,7,8,1,
,8/3x,7,6,5/4,3,2,1/7,
8<5[8:1],1,2,3,4>1[8:1],5,6,7,
{1}8h[400:799],
{16},,,,,,,,,,,,,,,,(170)3,
3,{8}4,2/5,{16}6,6,{8}5,4/7,6/3,5/2,
{16}3,4b/2b,,6,{8}7b/5b,{16}4,5,{8}3b-8[8:1]/6b-1[8:1],5/4,{4}6b/3b,
(83){16}6/3,6h[384:167]/3h[384:167],,,,,,,(180){2},
{16},,,,,,,,B7,B6,{8}B5,{16},,,,B2,
B3,{8}B4,{16},,,,B7,B6,{8}B5,,,{2}C,
8h[2:1],
C,2h[2:1],
{4}C,B6,{2}6h[2:1],
C,4h[2:1],
C,{4}6h[4:3],B1,
B2,B3,3h[4:3],B8,
B7,B6,6h[2:1],8,
5h[2:1],8,4h[2:1],1,
3h[2:1],1,7h[4:3],1,
2,3,4h[1:1],8,
7,6,{2}5<1[2:1],
1>5[2:1],5w1[2:1],
{4},,(177)3/7<5[8:1],7/1,
{16}6/3,,,4,{8}5,3/6,,2,{4}8/1>4[8:3],
{8}5,6,7,8,{4}6/2>4[8:1],2/8,
{16}3/6,,,5,{8}4,6/3,,7,{4}1/8<5[8:3],
{8}4,3,2,1,{4}3/7-5[8:1],7/1,
{16}6/3,,,5,{8}5,3,{4}6/2-4[8:1],2/8,
{16}3/6,,,4,{8}4,6,{16}1/7<4[8:1],,,8,{8}7,1,
{16}8/2>5[8:1],,,1,{8}2,8,{16}1/7-3[8:1],,,8,{8}7,1,
(170){2}Ch[2:1],(170.004){8}2q6[4:1],,,7p3[4:1],
,,{4}2-5[4:1],{8},8h[8:3],,,1h[8:1],
2h[8:1],3h[8:1],4h[8:1],{4}5h[16:5],{16}8,7,6,5,
4,3,2,1,{4}8h[8:3],{8},2h[8:1],1h[8:1],4h[8:1],
5h[8:1],1h[8:1],8h[8:1],5h[16:1],3/7,,,4/6,
,,,,2/6,,,3/5,
(170),{16}4,5,6,7,8,1,(170.004){2}6/2-6[2:3],
{8},,,,1,,,7,
,4,,(170)3/6,4/5,3,4/6,7,
5/3,2,4/7,6,{16}4,5,4,5,3,6,3,6,
2,7,2,7,1>1[0.3459##1.1237]*<1[0.3459##1.1237],8,1,8,(180){2},
{8},,,,,,,,4b/7b,
4b,2b/5b,5b,{16}8b/1b,,,7b/5b,,,{8}4b/5b,
{16},4b/2b,,,{8}8b/1b,7b/5b,{16}3b/C,,,7b/C,,,(190){8}1b/Ch[8:3],
,,,,(180){4}2-6[8:1]/7-1[8:1],7/2V46[8:1],
2/8-6[8:1],{8}8,2,,1-5[8:1],7-3[8:1],1<3[16:3],
7,1,,,(182)5/2-5[8:1],{16}3,4,{8}2,8,
7/4,{16}6,5,{8}7qq4[2:1],1,7,4,3,2>4[8:1],
1,{16}5,6,{4}7,(180){8}1-5[8:1],8-6[8:1],1-3[8:1],8-4[8:1],
1-5[8:1],8<5[8:1],1,8,,2/8,1-5[8:1],7,
{4}1/8-3[8:1],1/8,(182){8}4/7-4[8:1],{16}6,5,{8}7,1,
5/2-5[8:1],{16}3,4,{8}2,8,4/7-4[8:1],6,7/2,3,
{16}6b/1b,,,8b/3b,,,{8}7b/2b,(174){2}Ch[4:7],
{8},,,,,,,,,,,,(170)7/4,
{16}6,5,{8}6,4/7,
{4}6h[8:1]/5h[8:1],4h[8:1]/7h[8:1],{8}2/5,{16}3,4,{8}3,5/2,
{4}4h[8:1]/3h[8:1],5h[8:1]/2h[8:1],{8}7/4,{16}6,6,{8}5,7/4,
{4}6h[8:1]/5h[8:1],7h[8:1]/4h[8:1],{8}2/5,{16}3,3,{8}4,5/2,
{4}3h[8:1]/4h[8:1],5h[8:1]/2h[8:1],{8}7/3,{16}6,4,{8}5,7/3,
{16}6,4,5,4,{8}6,5/3,2/6,{16}3,5,{8}4,2/6,
{16}3,5,4,5,{8}3,7/1,{16}2,8,2,8,1,7,1,7,
2,7,1,8,2-6[8:1],7,1,8,{2}2<4[2:1],
{8},,,,1/8,{16}2,4,{8}3,8h[8:1],
{16}2,7,3,7,4,7,{8}5,8/1,{16}7,5,{8}6,1h[8:1],
{16}7,2,6,2,5,2,{8}4,8/1,{16}2,4,{8}3,8h[8:1],
{16}2,5,2,6,2,7,{8}2,8/1,{16}7,5,{8}6,1,
{16}7,4,7,3,7,2,{8}7,1/8,{16}6,5,{8}7,1/8,
5/2,{16}3,4,{4}1-3[0.3424##0.1765],{8}1-5[8:1],{16}5,5,{8}1-3[8:1],{16}7,7,
{8}1-5[8:1],{16}5,5,{4}1,(180){16}7b/5b,,,8b/1b,,,{8}4b/2b,
{16}7b/5b,,,8b/1b,,,{8}4b/2b,{16}6b/C,,,2b/C,,,{8}8b/Ch[8:3],
,,,,{4}7-3[8:1]/2-8[8:1],2/7V53[8:1],
7/1-3[8:1],{8}1,7,,8-4[8:1],2-6[8:1],8,
{4}2,{32}8-4[0.3267##0.1451],7,6,5,4,3,2,1,(182){4}8,{8}5/2,4/7-4[8:1],
{16}6,5,{8}7,1pp5[2:1],2,,5,6,7,
8,{16}4,7,3,6,2,5,(180){8}1-5[8:1],8-4[8:1],1>4[8:1],8<5[8:1],
1v4[8:1],8v5[8:1],1,8,,7/1,8-4[8:1],1,
{4}8/1-6[8:1],8/1,{8}4/7-4[8:1],{16}8,1,{8}7,3,
2/5,{16}1,8,{8}2q4[8:3],5,2,8,7,6,
{32}1/5b<1[8:1],,,,,,,,,1/5,2,3,{8}4,{4}8-6[8:1]*-5[8:1],8-2[8:1]*-3[8:1],
8<3[4:1],1h[8:1],{8},2>5[8:1],5-2[8:1],2V48[8:1],
7,6,{4}6,(182){8}5/2-5[8:1],{16}3,4,{8}2,7,
3/8-5[8:1],{16}1,2,{8}8,3,6/2-5[8:1],3,2/7,8,
{4}1xh[32:7],{32}2,3,4,5,6,7,8,1,(180){8}2-4[8:1],7-5[8:1],2-8[8:1],7-1[8:1],
2-4[8:1],7p5[2:1],2,7,,1,2,3,
4h[4:1],8b,{4}6b,(182){16}1,5,1,5,2,6,2,6,
3,7,3,7,4,8,4,8,4,3,2,1,{4}8/4,
{16}2b/6b,,,4b/8b,,,{8}6b/3b,{16}4b,5,4,5,3,6,3,6,
1x,8,1,8,2,7,2,7,3x,4,3,4,8,7,8,7,
5x,6,5,6,2,1,2,1,4,5,4,5,3,6,3,6,
2,7,2,7,1,8,1,8,1x,2,3,4,2x,3,4,5,
3x,4,5,6,4x,5,6,7,{4}8/4b,{16}6,3,6,3,
8x,1,8,1,7,2,7,2,6x,5,6,5,1,2,1,2,
4x,3,4,3,7,8,7,8,5,4,5,4,6,3,6,3,
7,2,7,2,8,1,8,1,8x,7,6,5,7x,6,5,4,
6x,5,4,3,5x,4,3,2,(180){4}1/5b,{16}2,4,{8}3-7[16:3],
7,5,{16},,,,2,4,{8}3,{16}7,5,{8}6,
{16}1-5[8:1],8,2,7,{4}1,{16}7,5,{8}6,{16}2,4,{8}3,
{16}8-4[8:1],1,7,2,{4}8,{16}1,2,3,5,6,7,2,3,
4,5,6,7,{4}8/1,8/3,{16}7,5,{8}6-2[16:3],
2,4,{16},,,,7,5,{8}6,{16}2,4,{8}3,
{16}8-4[8:1],1,7,2,{4}8,{16}2,4,{8}3,{16}7,5,{8}6,
{16}1-5[8:1],8,2,7,{4}1,{16}8,7,6,4,3,2,7,6,
5,4,3,2,{4}8/1,(170),8<1[8:11]/1>8[8:11],
{8},,,,,,,,,,,B6/B7/E7/B3/B2/E3/Cfh[16:1],
E
