&title=Alexandrite
&artist=onoken
&first=0.6
&des=0d00
&lv_5=13
&inote_5=(175)
{8}7<4[8:3],,,4>1[8:3],,,1<5[8:3],,,5>5[8:6],,,2,,,,
{8}2>5[8:3],,,5<8[8:3],,,8>3[8:2],,,5-8[8:2],,4-1[8:1],,,,,
{8}7<4[8:3],,,4>1[8:3],,,1<5[8:3],,,5>5[8:6],,,8,,,,
{8}3>8[8:3],,,8<5[8:3],,,5>2[8:2],,,8h[8:4],,1h[8:3],,,,,
{8}7h[8:2],,5-2[8:1],4,,,1h[8:3],,,8,,,7pp6[8:3]/4,,,,
{8}3h[8:2],,4-7[8:1],5,,,8h[8:3],,,1,,2/5h[8:4],,,{16}6,7,8,1,
{8}2h[8:2]/6,,4-7[8:1],5,,,3h[8:3],,,7,,,2qq3[8:3]/8,,,,
{8}5h[8:2],,4-8[8:1],3,,,7h[8:2]/1h[8:3],,,6,,5/3h[8:4],,,{16}2,1,8,7,
{8}6b/4b,,3h[8:3],2,1>4[8:1],,6,,
{8}6h[8:3],7,8v2[8:1],,4-8[8:1],,,,
{8}3/5,,6h[8:3],7,8<5[8:1],,3,,
{8}3h[8:3],2,1v7[8:1],,2-6[8:1],,,,
{8}8/4,,1h[8:3],2,3-6[8:1],,5,,
{8}7h[8:3],8,1>4[8:1],,6p8[8:1],,,,
{8}4/7,,7h[8:3],6,5-8[8:1],,2,,
{8}2h[8:3],3,4,5,{12}1,2,3,5,6,7,
{8}8b/4b,7,7,2b/6b,1,1,4b<8[8:2],,
{16}1,2,3,4,5,6,7,8,{8}1/5,2,8,3/7,6,1,5<1[8:2]/2,,{16}2,3,4,5,6,7,8,1,
{8}2/6,7,1,6/2,3,8,4/7,5,8,1/6,2,8,7/5,6,1,2/4,3,8,5b-8[8:16]/4b-1[8:16],,,,,,,,,,,,,,,,,,,,
{8}3<5[8:6]/4,,,2,6h[128:1],,6,,,7,,,7h[128:1]/1,,,,
{8}6>4[8:6]/5,,,7,3h[128:1],,3,,,2,,,2h[128:1]/8,,,,
{8}3^6[8:6]/4,,,2,7h[128:1],,7,,,8,,,8h[128:1]/2,,,,
{8}7<3[8:6]/5,8,1,2,2h[128:1],,2,,,1,,,1,6/4,,,
{8}7/3,6,5,7,6h[128:1],5,7,6,5,4,3V51[8:2],1,8,7,7,,
{8}2/6,3,4,2,3h[128:1],4,2,3,4,5,6V48[8:2],8,1,2,2,,
{8}7/3,6,5,7,6h[128:1],5,7,6,5,4,3V51[8:2],1,8,7,6,,
{8}2/5,3,4,1,8h[128:1],7,6/2,3,
{8}4,5-8[8:3],,4-1[8:1],,4b,,,
{16}4,7,4,7,5,6,5,6,4,,1h[8:2]/7h[8:2],,,,,,
{16}5,2,5,2,4,3,4,3,5,,8h[8:2]/2h[8:2],,,,,,
{12}7,5,6,1,3,2,{16}5,6,7,8,1,2,3,4,
{16}5,2,5,2,4,3,4,3,5,,8h[8:2]/2h[8:2],,,,,,
{16}7,5,6,4,5,3,4,2,1,,7h[8:2]/3h[8:2],,,,,,
{16}2,4,3,5,4,6,5,7,8,,2h[8:2]/6h[8:2],,,,,,
{12}3,4,2,6,5,7,{16}4,3,2,1,8,7,6,5,
{16}4,6,4,6,3,7,3,7,2-5[8:1],8,1,7,2b,,,,
{16}7,4,5,4,7,4,5,4,7,,3,,5h[8:2],8,1,2,
{16}3,5,4,5,2,5,4,5,2,,6,,4h[8:2],1,8,7,
{12}6,3,3,6,2,2,{16}5,6,7,8,1,2,3,4,
{16}5,3,7,2,5,4,6,3,5-1[8:1],,3b,,5/2,,,,
{8}7/4,7,6/3,6,5/2,5,4/1,4,3/8,3,{24}2,1,8,7,6,5,4/3,,,1b-5[8:1],,,,,,,,,
{1}4b>5[1:7],
{1},
{1},
{1},
{1},
{1},
{1},
{1},
{8}6-3[8:10],,5,4,,5,4,,,2h[8:3],,,,,,,
{8}3-6[8:10],,4,5,,4,5,,,,,,,,3,3,
{8}6,5,4,3h[8:2],,,3h[8:2]/4,,,3h[8:2]/5,,,6h[8:2],,7,,
{8}6h[8:2]/5,,,6h[8:2]/4,,,3h[8:4]/4>5[8:6],,,,,,,,,,
{8}2h[8:2],,4-7[8:1],5,,,8h[8:3],,,2-4[8:1],,,5pp4[8:3],,,,
{8}2h[8:2],,4-1[8:1],5,,,8h[8:3],,,2-4[8:1],,,1pp5[8:3],,7,,
{8}7h[8:2],,5-2[8:1],4,,,1h[8:3],,,7-5[8:1],,,4qq5[8:3],,,,
{8}7h[8:2],,5-8[8:1],4,,,1h[8:3],,,7,8,1,{12}8,7,6,4,3,2,
{8}1b/5b,2,2,7b/3b,8,8,5b>1[8:2],,
{16}8,7,6,5,4,3,2,1,{8}8/4,7,1,6/2,3,8,4>8[8:2]/7,,{16}7,6,5,4,3,2,1,8,
{8}7/3,2,8,3/7,6,1,5/2,4,1,8/3,7,1,2/4,3,8,7/5,6,4/5,1b-4[8:16]/8b-5[8:16],,,,,,,,,,,,,,,,,,,{16}6b/1b,,,,,,
{16}7,8,7,8,6,5,4,3,2,,1h[8:2]/7h[8:2],,,,,,
{16}2,1,2,1,3,4,5,6,7,,8h[8:2]/2h[8:2],,,,,,
{12}3,8,1,7,4,5,{16}3,2,1,8,7,6,5,4,
{16}5,3,5,3,6,7,8,1,2,,5h[8:2]/3h[8:2],,,,,,
{16}7,8,6,5,7,8,1,2,3,,7h[8:2]/5h[8:2],,,,,,
{16}2,1,3,4,2,1,8,7,6,,2h[8:2]/4h[8:2],,,,,,
{12}6,1,8,2,5,4,{16}6,7,8,1,2,3,4,5,
{16}1,2,3,4,2,3,4,5,{24}8,1,2,3b/7b,,,8<5[8:1],,,,,,
{16}8b/4b,3,2,1h[8:1],4,5,6,7,8-6[8:1],,2,,1>4[8:1]/8,,,,
{16}1b/5b,6,7,8h[8:1],5,4,3,2,1/7-4[8:1],,6,,8/7,,,,
{12}2,5,4,6,1,8,{16}2,3,4,5,1,8,7,6,
{24}2,3,4,8,7,6,1,2,3,7,6,5,4,3,2,1,8,7,6b,,,,,,
{8}6/1,1,2/7,2,3/8,3,4/8,4,
{16}1,5,8,4,7,3,6,2,5,1,4,1,3,1,8,1,
{12}7,7,7,5,5,5,3,3,3,1,1,1,
{24}4,8,4,8,4,8,4,8,4,8,4,8,
{32}5<5[4:1],6<6[4:1],7>7[4:1],8>8[4:1],1,2,3,4,,,,,,,,,
{8}1bp6[4:12]*q3[4:12],,,,,,,,,,,,,,,,
{8},,,,,,,,,,,,,,,,
{8}7<4[8:3],,,4>1[8:3],,,1<5[8:3],,,5>5[8:6],,,8,,,,
{8}3>8[8:3],,,8<5[8:3],,,5>2[8:2],,,8h[8:4],,1h[8:3],,,,,
