&title=生きる
&artist=水野あつ (feat. 可不)
&first=0
&des_5=ホシノちゃん
&lv_5=13+
&des_7=ホシノちゃん
&lv_7=藏
&des=ホシノちゃん
&inote_5=(112)
{1},
{4}2V46[8:3],,8V24[8:3],,7V13[8:3],,5w1[8:1],,
{4}7V53[8:3],,1V75[8:3],,2V86[8:3],,4w8[8:1],,
{4}3-5[8:1],3V51[8:3]/5V37[8:3],,,6-4[8:1],6V48[8:3]/4V62[8:3],,,
{4}1-5[8:1],1p4<7[2:1]/5p8>3[2:1],,,,,,C,
{8}2<8[8:1],2>4[8:1],,,6-4[8:1],6-8[8:1],,,2-6[8:1],2-4[8:1],,,8w4[8:1],,,,
{8}7>1[8:1],7<5[8:1],,,3-5[8:1],3-1[8:1],,,7-3[8:1],7-5[8:1],,,1w5[8:1],,,,
{4}2p6[8:1],3>8[8:1],4p8[8:1],5pp7[8:1],5-1[8:1]*qq3[8:1],5<4[8:3],,,
{4}7q3[8:1],6<1[8:1],5q1[8:1],4qq2[8:1],4-8[8:1]*pp6[8:1],4>5[8:3],,,
{4}2-6[8:1]/6-2[8:1],2V84[8:3],7-5[8:1],,7-3[8:1]/3-7[8:1],7V15[8:3],2-4[8:1],,
{4}2q6[8:1]/6q2[8:1],2<4[8:3],2pp4[8:1],,
{4}3b>1[4:1]*>8[8:3]*>7[2:1]*>6[8:5]*p6[8:5],,,,
{8}3-5[8:1],,6-8[8:1],8-2[8:1],2V86[4:1],,6-4[8:1],4-2[8:1],2V46[4:1],,6w2[8:1],,,,8-6[8:1],6-4[8:1],
{8}4V68[4:1],,8-2[8:1],2-4[8:1],4w8[8:1],,,,2-4[8:1]/8-4[8:1],4V26[4:1],2-8[8:1],,,,7-3[8:1],,
{8}6-4[8:1],,3-1[8:1],1-7[8:1],7V13[4:1],,3-5[8:1],5-7[8:1],7V53[4:1],,3w7[8:1],,,,1-3[8:1],3-5[8:1],
{8}5V31[4:1],,1-7[8:1],7-5[8:1],5w1[8:1],,,,4qq4[8:3]*pp4[8:3],,,,,,2>1[4:7],,
{4}3<1[2:3],4<1[4:5],5<1[1:1],6<1[4:3],7>1[2:1],8>1[4:1],4-8[8:1],,
{8}1-5[8:1]/7-5[8:1],5V73[4:1],,,4>1[8:1],4<7[8:1],,,2-4[8:1],8-6[8:1],1-5[8:1],,1q6[8:1]*p4[8:1],,,,
{8}3pp3[4:1],,3>5[8:3],,8q5[8:1],,,,7pp7[4:1],,7<1[8:3],,4q1[8:1],,,,
{8}2-4[8:1]/8-4[8:1],4-6[8:1]*-8[8:1],8>7[8:3],,,,,,
{8}7-5[8:1]/1-5[8:1],5-3[8:1]*-1[8:1],1<2[8:3],,,,,,
{8}1-5[8:1]/6-8[8:1],5-1V37[8:3],,,8-4[8:1],,,,
{4}6>3[8:1],6<8[8:1]*<1[16:3]*<2[4:1]*<3[16:5]*q3[16:5],,,
{4}5w1[2:3]*w1[2:3],,,,,,,,4w8[8:5],,,,5qq5[2:1]*pp5[2:1],,,,
{4}8-6[8:1]*-5[8:1],,4-2b[8:1]*-1b[8:1],,8>1>2>3<4<5<6<7[8:5],,,,
{4}2q6[8:1]/1-5[8:1],,8-4[8:1]/7p3[8:1],,4qq4[2:1]*pp4[2:1],,,,
{8}2-5[8:1],,6-8[8:1],8-2[8:1],2V86[4:1],,3-5[8:1],5V31[4:1],3V15[4:1],1V37[4:1],,,,,7-1[8:1],1-3[8:1],
{8}3V17[4:1],,7-5[8:1],5-3[8:1],3V52[16:3]*V58[16:3],,,,1x-5[8:1]/7x-5[8:1],5V73[4:1],7-1[8:1],,,,2-8[8:1],,
{8}7-4[8:1],,3-1[8:1],1-7[8:1],7V13[4:1],,6-4[8:1],4V68[4:1],6V84[4:1],8V62[4:1],,,,,2-8[8:1],8-6[8:1],
{8}6V82[4:1],,2-4[8:1],4-6[8:1],6V47[16:3]*V41[16:3],,,,8z4[4:1],,4qq4b[8:3]*pp4b[8:3],,,,,,
{4}1qq5[2:3]/2>4[8:1],,4>1[8:1],,1>5[2:1],,,,
{4}8pp4[2:3]/7<5[8:1],,5<8[8:1],,8<4[2:1],,,,
{4}2V46[8:3],,8V24[8:3],,7V13[8:3],,5w1[8:1],,
{4}7V53[8:3],
E
&inote_7=(112)
{4},,,,
{4}8-6[8:1],1-5[8:1],2-4[8:1],,
{4}7-5[8:1],8-4[8:1],1-3[8:1],,
{4}2-4[8:1],1-5[8:1],8-6[8:1],,
{4}1-3[8:1],8-4[8:1],7-5[8:1],,
{4}1-6[8:1],1-4[8:1],1<6[8:1],1>4[8:1],1-6[8:1],1-4[8:1],1w5[8:1],,
{4}7-3[8:1]/8-4[8:1],,1-5[8:1]/2-6[8:1],,1pp4[8:5]/8qq5[8:5],,,,
{8}1v3[8:1],7v5[8:1],,,2v4[8:1],8v6[8:1],,,
{8}2>4[8:1],7<5[8:1],2-6[8:1],7-3[8:1],2V85[8:1],7w3[16:1],,,
{8}8v6[8:1],2v4[8:1],,,7v5[8:1],1v3[8:1],,,
{8}7<5[8:1],2>4[8:1],7-3[8:1],2-6[8:1],7V14[8:1],2w6[16:1],,,
{4}4v1[8:1]/8v5[8:1],,3v2[8:1]/7v6[8:1],,8-2[8:1]/7-5[8:1],8-4[8:1]/7-3[8:1],8>8[16:3]/7<7[16:3],,
{4}2-5[8:1]/5-1[8:1],,7-4[8:1]/4-8[8:1],,1-5[8:1],5-1[8:1],1w5[8:1],,
{4}1-4[8:1]/2-4[8:1],1-7[8:1]/2-7[8:1],1z5[8:1]/2s6[8:1],,
{4}8-5[8:1]/7-5[8:1],8-2[8:1]/7-2[8:1],8s4[8:1]/7z3[8:1],,
{4}8-5[8:1],8-3[8:1],8-4[8:1],,
{4}3>1[4:1]*>8[8:3]*>7[2:1]*>6[8:5]*v6[8:5],,,,
{4}1-6[8:1]*-4[8:1],,5-2[8:1]*-8[8:1],,2>4[8:1]/7<5[8:1],2-7[8:1]/7-2[8:1],2-5[8:1]/7-4[8:1],,
{8}8pp8[8:1]*qq8[8:1],,,,4pp4[8:1]*qq4[8:1],,,,2<8[8:1],8>2[8:1],5pp5[8:1],5qq5[4:1],,,,,
{4}8-3[8:1]*-5[8:1],,4-7[8:1]*-1[8:1],,7<5[8:1]/2>4[8:1],7-2[8:1]/2-7[8:1],7-4[8:1]/2-5[8:1],,
{8}1qq1[8:1]*pp1[8:1],,,,5qq5[8:1]*pp5[8:1],,,,7>1[8:1],1<7[8:1],4qq4[8:1],4pp4[4:1],,,,,
{4}8q1[8:11]/2>4[8:1],,7<5[8:1],,2>4[8:1],,3-6[8:1]*-6[8:1],,
{8}2-7[8:1],8-3[8:1],2-5[8:1],8-5[8:1],2<7[8:1],8>3[8:1],,,
{8}7-2[8:1],1-6[8:1],7-4[8:1],1-4[8:1],7>2[8:1],1<6[8:1],,,
{4}2-4[8:1]*-5[8:1],2-8[8:1]*-7[8:1],2-6[8:1],,
{4}7-5[8:1]*-4[8:1],7-1[8:1]*-2[8:1],7-3[8:1],,
{4}1>4[8:1]/4<7[8:1],,8<5[8:1]/5>2[8:1],,1-4[8:1]/4-7[8:1],,8-5[8:1]/5-2[8:1],,
{4}1v3[8:1]/7v5[8:1],,8v6[8:1]/2v4[8:1],,3<6[8:1]/6>3[8:1],3/6<8[8:1]*<1[16:3]*<2[4:1]*<3[16:5]*v3[16:5],,,
{4}7qq4[8:13]/1-7[8:1],,1-3[8:1],,1<7[8:1],,1>3[8:1],,
{4}2pp5[8:13]/8-2[8:1],,8-6[8:1],,8>2[8:1],,8<6[8:1],,
{4}6pp1[8:13]/4-6[8:1],,4-2[8:1],,4<6[8:1],,4>2[8:1],,
{4}3qq8[8:11]/5-3[8:1],,5-7[8:1],,5-8[8:3],,,
{8}2b-6[8:1],6-2[8:1],,,7-3[8:1],3-7[8:1],,,1-5[8:1],5-7[8:1],7-3[8:1],3-1[8:1],1-7[8:1],7-5[8:1],5-1[8:1],,
{8}7-3[8:1],3-7[8:1],,,2-6[8:1],6-2[8:1],,,8-4[8:1],4-2[8:1],2-6[8:1],6-8[8:1],8-2[8:1],2-4[8:1],4-8[8:1],,,,
{4}1w5[8:1],,8w4[8:1],,1-3[8:1]/7-5[8:1],1v4[8:1]/7v4[8:1],,,
{4}8w4[8:1],,1w5[8:1],,8-6[8:1]/2-4[8:1],8v5[8:1]/2v5[8:1],,,
{4}1w5[8:29]*w5[8:29]/8-2[8:1]*-2[8:1],,8-6[8:1]*-6[8:1],,8V24[8:5]*V24[8:5],,,,
{4}1-7[8:1]*-7[8:1],,1-3[8:1]*-3[8:1],,1-5[8:5]*-5[8:5],,,,
{4}8-6[8:1],1-5[8:1],2-4[8:1],,
{4}7-5[8:1],8-4[8:1],1-3[8:1],,
{4}2-4[8:1],1-5[8:1],,,
E
