&title=Rrhar'il
&artist=Team Grimoire
&first=0.12
&des=ProSei
&des_5=ProSei
&lv_5=14+
&inote_5=(190)
{1},
{32}8bh[4:1]/7b,6x,5x,4x,3xh[8:1],,,,{4},4h[4:1]/8h[4:1],,5h[4:1]/8h[4:1],,6h[4:1]/8h[4:1],,
{4}5bh[4:1]/7bh[4:1],,8h[4:1]/5h[4:1],,1h[4:1]/5h[4:1],,2h[4:1]/5h[4:1],,
{16}4b>1[4:1]/6b,,,,,,7b<4[4:1],,,,,,2,,2,,
{16}18,,7-3[8:1],5,,,8,,1,,2,4,3,5,4,6,5b,,,7b/8b,,,1b/2b,,3b/4b,,,,8,3,7,4,
{4}6bh[1:2],,,,5bh[1:1],,,,
{16},,,,B1,B7,B3,B5,B2,B8,B4,B6,E2,E3,E4,E5,
{16}8V24[8:1]b,,,,8bx,,6,,7V51[4:1],5,6,5,7x,,4,,
{16}3-8[8:1],,,,3x,,5,,6-2[8:1],,,5,6x,,3,,
{16}1V75[8:1],,,,1x,,3,,2V48[4:1],4,3,4,2x,,5,,
{16}6-1[8:1],,,,6x,,4,,3-7[8:1],,,4,3x,,6,,
{16}8b,,,,5h[16:1]/6h[16:1],,56,,2h[16:1]/4h[16:1],,24,,3h[16:1]/7h[16:1],,37,,
{16}8-5[8:1],,5V73[4:1],,8,,4,,2h[4:1],,,,1,8,7,6,
{16}2,4,3,5,2,6,1,7,2,8,3,7,4,6,3,5,2,1,8,7,E2,E1,E8,E7,{12}3b,5b,4b,7b,5b,6b,
{16}1p5[8:1]b,,,,1b,,3,,2-6-8[4:1],4,3,4,2,,5,,4-1[8:1],,,,4,,7,,6,5,6,5,8h[8:1],,1h[8:1],,7,5,7,5,6,4,6,4,5,3,5,3,4,2,4,2,5,6,7,8,1,2,3,4,5/1,8,7,6,5,4,3,2,
{16}1b,,7,5,7,,6,8,7,1,6,2,5,3,6,4,7-4[8:1],,7,,2,,2,,1-5[8:1],,1,,6,,6,,
{16}7b/Cf,,,3b/5b,,,8x/6x,,2b/Cf,,,6b/4b,,,1x/3x,,8bw4[8:1],,,,8b,,,,{12}2/5,3,4,5/7,6,5,
{16}2bqq3[4:1]/4,,,,5,,5,,4-8[8:1],,,6,4,,,,7pp6[4:1],,,,4,,4,,5-1[8:1],,,3,5,,,,
{16}2,4,3,3,7,5,6,6,8,1,2,3,8,7,6,5,2h[4:1]/4,,8,7,6,,1,8,7,,5,4,6,,8,,
{16}7bpp8-6[4:1]/5,,,,4,,4,,5-1[8:1],,,3,5,,,,2qq1-3[4:1],,,,5,,5,,4-8[8:1],,,6,4,,,,
{16}7,5,6,4,5,,3,4,2,5,1,6,2,7,3,8,4h[4:1],,7,6,5,,8,7,6,5,4,3,8,1,8,1,
{16}7b,,4-8[8:1],5,2,,4,,2,3,4,5,8,7,6,5,1,,7-4[8:1],5,6,,7,,1h,,2h,,3h,,4h,,
{16}7,5,6,5,E7,B7,B8,E1,2,4,3,4,E3,B2,B1,E1,
{16}6-2[8:1],,1>4[8:1],,6,,1,,8h,,7h,,6h,,5h,,
{16}2b/4b,,1-4[8:1],3,8,,1,,7,6,5,4,1,2,3,4,7b/5b,,8-5[8:1],6,1,,8,,2,3,4,5,8,7,6,5,
{16}1b>4[8:1]/4b,,5,,1,,7b-3[8:1],,5,,7,,2,,4,,
{16}8<5[8:1],,3,3,8>3[8:1],,2,2,8-4[8:1],,4,4,8,,2,2,
{16}6bh[8:3],,,,,,4,,,,8-6[8:1],4,4,,8,,,,2-4[8:1],6,6,,2,,,7,7,5,5,,6,,
{16}4bh[16:5],,7,,,7,,5,5,,6,6,4,4,5,,1,,,24,,24,35,46,57,,,18,,,24,,
{16}Cf,,,,8bh[4:1],,,,2,2,4,4,,,1,,7,,6,2,2,,4-8[8:1],,,,4,,2,1,1,,
{16}57,,,28,,,35,,7,68,,2,13,,5,4,5h[4:3],,,,,,,,1h[4:1],,,,,,,,
{8}8h[4:1]/6<2[4:1],,,,3,,8,8,1h[4:1]/7>3[4:1],,,,4,,6,,8>4[4:1]/2h[4:1],,,,5,,2,,1h[4:1]/3h[4:1],,,{16}8v5[8:1]/2v5[8:1],73,64,,,,,,,,
{8}4h[4:1]/2V46[4:1],,,,7,,4,4,5h[4:1]/3V57[4:1],,,,8,,2,,4-7-2[2:1],,,,2>5-8[2:1]
,,,,8>6[2:1],,,,7h[2:1],,,,
{1}1b>8[4:7],,1b>8[2:3]b,,
{16}1,1,1,,1,1,,1,1,,1,1,1,1,1,1,
{12}1b,8,7,6,5,4,{16}3,2,1,8,7,6,5,4,{24}3,2,1,8,7,6,5,4,3,2,1,8,{32}7,6,5,4,3,2,1,8,7p5>1[4:3]b,6,5,4,3,2,1,8,
{1}7b,
{16}1-5[8:1],,,,6,7,8,1,4b,,3,4,2,,6,5,7h[4:1],,,,6h[8:1],,8,1,4,3,7,5,6,,1,2,
{16}3,,7,7,5,5,3,3,4,2,1,3,8,4,7,5,6h[4:1],,,,8,,7/1,62,5/3V52[4:1],,,,3/5,,6,,
{16}7b-5[8:1],,,,7-1[8:1],,2,3,7/4,,3x,4,5,,8x,7,6/1-5[8:1],,5,5,1>4[8:1],,7,7,1,,,6,5,,8,,
{16}2-6[8:1],,2,,8-5[8:1],,8,,1,2,3,4,1,8,7,6,2,4,2,4,3,,8,1,8,,5,7,5,6,5,7,
{16}4b-8[8:1],,,,8,7,6,5,4/1-4[8:1],,6-2[8:1],,1,,6,,3h[8:3],,,,1,8,7,6,5/2h[4:1],,,,7,3,6,4,
{16}5b-1[8:1],,,,1,2,3,4,5/8-5[8:1],,3-7[8:1],,8,,3,,6h[8:3],,,,8,1,2,3,4/7h[4:1],,,,2,6,3,5,
{16}4b-1[16:1],,,8b-5[16:1],,,2b-7[16:1],,,6b,,,1,5,2,4,3h[8:1],,1x,1x,,7,,1,6h[8:1],,8x,8x,,1,2,3,
{16}6b/4,,7-3[8:1],,,,1b,,2-5[8:1],,,,8b,,7b,,4b/6b,,,1b/3b,,,7b/8b,,{32}16,,,,1h[8:1]/2,3,4,5,,,,,7/8h[8:1],6,5,4,
{16}2-5[8:1],,8-4[8:1],,2,,8,,3,2,1,8,6,5,6,5,7-4[8:1],,1-5[8:1],,7,,1,,6,7,8,1,3,4,3,4,
{16}2/5,,6,5,7,,2,1,3,4,5,6,8,1,8,1,7b<4[8:1],,,,7,,2,2,1b,,,3b/4b,,,5b/6b,,
{16}7-4[8:1],,1-5[8:1],,7,,1,,6,7,8,1,3,4,3,4,2-5[8:1],,8-4[8:1],,2,,8,,3,2,1,8,6,5,6,5,
{16}7b/4b,,7,B5/B6,7,,7,,2b/5b,,2,B4/B3,2,,2,,8-4[8:1],,7,6,5/8>3[8:1],,7,6,5/8,,,,5,6,7,8,
{16}2b,4,1,5,8,6,1,7,2b,4,3,6,8b,7,1,6,3b,5,4,6,3,7,2,8,3b,1,2,7,4b,6,2,8,
{16}1b,7,8,6,1,5,2,4,3b,7,5,6,2b,4,3,7,1b-5[16:1],,,1b<6[16:1],,,1b,,{12}3b,4b,2b,6b,5b,7b,
{16}2>5[8:1],,8<5[8:1],,2,,8,,1,2,3,4,5/1,8,7,6,5/1>4[8:1],,7<4[8:1],,1,,7,,8,1,2,3,4/8,7,6,5,
{16}1b,2,3,1b,8,7,1b,2,3,4/1b,8,7,{32}1b/6,2,3,4,5,6,7,8,
{16}1,3,2,8,6,7,2,4,3,7,5,6,1-5[8:1],18,18,18,
{1}1b>8[4:15]b/Cf,,,,1b,
