&title=桜爛ロマンシア
&artist=KyoKa
&first=0
&des=風見 司
&des_5=風見 司
&lv_5=13+
&inote_5=(148){4},,,,,,,,{16}B6/B7,
{8},{16}B3,{8}B4,B8,B2,B6,B3,B5,
B1,B7,E3,E7/B6,{4}B3/B4,{8}B7,B6,
{16}B5,{8},{16}B3,{8},B6,E2,B2,B3,B4,
B6/B5,B2,B3/B4,B7,C,{16}8x,1x,{4}7b/2b,
{16}7<4[8:1],{8},{16}8,{8},1,2v4[8:1],4p8[8:1],5,6,
{16}7<2[4:1],{8},{16}8,{8},1,{4}1h[4:1],8qq5[16:5],
{16}1,{8},{16}2,{8},3qq8[16:5],{16}3,{8},{16}5,{8},6,
{16}7<4[8:1],{8},{16}8,{8},1-5[8:1],,8b,{4}8b,
{16}4>1[8:1],{8},{16}7,{8},6,6v1[8:1],1V75[32:5],6,2,
{16}3v8[8:1],{8},{16}4,{8},5,{2}6v1[8:1],
{8}2,{16}7,8,,6,{8}5,8,{16}2,1,,3,{8}4,
2,{16}6,5,,3,{8}4,{4}1-5[8:1],1b/7bv4[8:1]*q3[8:1],
{1}7b>5<8b[8:9],
{2},{8}1,2,3,4,
{1}4V28[8:7],
7<4[8:7],
2v5[8:7],
6<4[16:13],
{2}1h[1:1],B2/B3/E3,
{4}6h[1:1],B8/B7,{2}B5/E5/B4,
3h[2:1],5h[2:3],
{8}1,1,1,1,1,1,1,1,
{2}2b>5[16:3],8b<5[16:3],
{16}2,4,3,4,2,5,4,5,{8}1h[4:1],8x,{4}8x,
{8}7,6/4,5h[8:1],{16}2,2,{8}4,3/5,7,1>6[8:3],
,6,{4}6qq5[16:5],{8},,,7,
{16}7<4[8:1],{8},{16}8,{8},1,2v5[8:1],4,2,6,
{16}6<1[8:1],{8},{16}5,{8},4,3v8[8:1],1,3,7,
6v1[8:1],6,5-2[8:1],5,7-4[8:1],7,8,8,
1b,{16}3,4,{8}3,6/5,8b,{16}6,5,{8}6,4/5,
{4}7b-1s5[16:5]/2b-8z4b[16:5],{2},{8}3/5,1,
2-5[8:1],{16}3,4,{8}2,7,6/4,1,3/5,7,
6pp5[32:9]/4qq5[32:9],5,{4}6/4,,{8}4,3,
{4}3v8[8:1],4-7[8:1],{8}4,{16}1x,2x,{8}3xv8[8:1],5>7[16:7],
{4}3b,{2},{8}5/3,8,
{4}1/7<4[8:1],{8}7,8,1-5[8:1],2,6-1[8:1],7,
4-8[8:1],3,7-5[8:1]*pp8[4:1],6,7,{4},{8}5,
1/4,3,4/6,7,8/1,2,3/5,4,
{16}7b/5b,7bx/5bx,,1b/8b,,2b/4b,{8}2bx/4bx,7b/3b,1b/5b,8x,8x,
{2}8-4[8:1],1-5[8:1],
{16}7,5,6,5,7,4,5,4,{4}8bh[4:1],{16}1,2,3,4,
{4}5-1[8:1],5/6,{8}8v5[8:1],{16}7,1,{8}8,2,
{4}4pp7[8:3]*qq1[8:3],{2},{8}6,8/2,
{4}1>4[8:1],{8}8/1-6[8:1],7,2/1-4[8:1],3,1/8p4[8:1],7,
1/8-3[8:1],2,8/6<1[8:1],5,6/4h[2:1],{4},{8}1-5[8:1],
1,3-8[8:1],3,6,6,{16}7,5,,2,{8}4,
1/8,6/4,8v5[8:1]/2v5[8:1],4/5>2b[16:3]*<8b[16:3],{32}8b/2b,Cf,{16},,,,,,,1>5[8:1],
{8},{16}6,{8},7,8-4[8:1],4,8,3,
{16}3>6[4:1],{8},{16}4,{8},5,{2}5-1[8:1],
{8}2,{16}7<4[8:1],8,,8,{8}7,1,{16}2>5[8:1],1,,1,{8}2,
8,{16}6<1[8:1],5,,5,{8}6,,8b/4b,{4}6b/2b,
{16}7qq4[16:5],{8},{16}2,{8},3,3>8[8:1],2,3/4,5,
{16}6>3[8:1],{8},{16}8,{8},1,{4}2h[4:1],1,
{16}8,5,6,1,4,3,8,8,2,4,3,7,5,6,1,1,
6,5,7,3,4,2,{8}8,{4}5-1[8:1]x,5b,
{8}2b/8b,{16}3,4,{8}3,1,{16}6,5,{8}6,8,{16}4,5,
{8}4,4/5,4/5,6/3,6/3,7/2,2/7,7b/2b,
E
