&title=散り散り
&artist=読谷あかね; 重音テト
&first=0
&des=泠り殇り
&lv_5=14
&inote_5=(184)
{1},
{8}4h[8:1],5,4,
{16}8,1,7,2,6h[8:1],,3,,3,,
{8}7-3[8:1],,7h[4:1],,2-6[8:1],,2h[4:1],,8-4[8:1],,8h[4:1],,3-7[8:1],,3h[4:1],,6<1[8:1],,6h[4:1],,3>8[8:1],,3h[4:1],,7-4[8:1],,7h[4:1],,2-5[8:1],,2h[4:1],,8h[8:3],,,1-5[8:1],,,,
{16}48,37,2h[8:3]/6,,,,
{8},6-1[8:1],,6h[8:1],,,
{16}25,,3,,4,,1,8,1,8,1,,7,,6,,74,,6,,5,,8,1,8,1,8,,2,,3,,
{8}4-8[8:1],,45,,7-3[8:1],,87,,2-6[8:1],,12,,8-4[8:1],,18,,3>8[8:1],,34,,7<4[8:1],,78,,2>5[4:1],,5<8[4:1],,8>3[4:1],,3s7[4:1],,6h[8:3],,,8-4[8:1],,,,
{16}53,62,7h[8:3]/1,,,,,,3-8[8:1],,,,3h[8:1],,,,,,56,,7,,81,,2,4,3,4,2,,8h[8:1],,1,,43,,2,,18,,7,5,6,5,7,,2-4[8:1],,2,,
{8}5h[4:1],,4,,5,5,4,,5h[4:1],,4,3-8[4:1],,3/8V61[4:1],7,6,5h[4:1],,2,,5,5,3,,5h[4:1],,2,,5,5,3,,2-6[8:1]/6,,7,8-4[8:1],,2,1,8-2[8:1],,7-3[8:1],,6-4[8:1],,6,6<3[4:1],6,3>6[4:1],4,,4h[8:3],,,5,,3h[8:1],1<5[4:1],,12,,,4-1[8:1],5,6h[8:3],,,8v5[8:1]*-6[8:1],,,,,,,2-6[8:1],6-2[8:1],,,8-4[8:1],4-8[8:1],,,,1s5[8:5],,8,7,6h[2:1],,,,,,,,,
7-3[8:1]/3,,72,1-5[8:1],,8-4[8:1],7,2-5[8:1],,7-4[8:1],,3-8[8:1],,6-1[8:1],7,6,2,2>6[8:3]*q6[8:3],,2,,,,,
{16}3,,4,,3,,4,3,5,4,6,,6h[8:1],,5,,1,,2,1,2,1,2,,7,8,7,8,7,8,7,,1,8,1,,8,1,8,1,7,2,8,1,7,2,8,,2h[8:3],,,,,,4h[8:3],,,,,,6-1[8:1],,6,,,,4<7[8:1],,,,4>1[8:1],,,,4,,5,,6,,3,4,3,4,3,4,3,4,3,4,3,4,3,4,3,4,3,4,3,2,3,4,3,2,3,4,3,2,3,4,3,2,3h[8:3],,,,,,7h[8:3],,,,,,4>4[2:1],,8,,4,,,,4>8[4:1],,,,8,,,,6h[8:1],,,,1,6,1,6,1,6,1,6,1,6,1,6,1,6,1,6,2,5,2,5,2,5,2,5,2,5,2,5,2,5,2,5,3,,
{24}3,4,5,
{16}6,,
{24}6,5,4,
{16}3,,3,,3,,3,,3,1,3,1,3,8,3,8,3,7,3,7,3,6,3,6h[16:1],8,7,8,7,1,8,1,8,2,1,2,1,2,1,2,1,3,4,3,4,3,5,4,5,4,6,5,6,5,6,5,6,5,,7,5,6,,6h[4:1],,,,7,,6,,5,,4h[8:1],,8,1,2,,3h[4:1],,,,4,,5,,5,,,,6<1[4:1],,,,1>4[4:1],,,,4<7[4:1],,,,7-2[4:1],,,,2-5[4:1],,,,5-8[4:1],,,,8-3[4:1],,,,3-7[4:1],,,,7-4[4:1],,,,4-6[4:1],,,,6,,,,,,
{6}3/4b,1/2b,3/4b,1/2b,1b/2,1-6[8:1]/2b-5[8:1],
{8},,,,,6-1[8:1],5-2[8:1],6,5,,8<5[8:1],,18,2-6[8:1],,2/8-4[8:1],,8/2V86[8:1],3,26,,5-1[8:1],4V26[4:1],5,4,8,7-3[8:1],,7/2-6[8:1],1-7[8:1]*-6[8:1],2,1-3[8:1]*-4[8:1],,1w5[8:1],,1,,46,3-7[8:1]/5-8[8:1],24,35,,,
{16}2-6[8:1],1,3h[4:1],,,,,,4,5,3-7[8:1],,
{8}2,5-1[8:1],6,1-5[8:1],2,8,7v4[16:3]*s3[16:3],,7,,5,6,7h[8:1],2,1-4[8:1]*-6[8:1],,1,,3-7[8:1],4<6[8:1],3,4,1,2-5[8:1]/8v5[8:1],,82,,46,7p3[8:1]/3,,7/1-5[8:1],,1/7>3[8:1],6,73,,4>1[8:1],5V73[4:1],4,5,8,1-5[8:1],,1/7-3[8:1],8-2[8:1]*-3[8:1],7,8-6[8:1]*-5[8:1],,8w4[8:1],,8,,53,6-2[8:1]/4>1[8:1],75,64,,,
{16}8v3[8:1],1,7h[4:1],,,,,,
{8}7,6-4[8:1],6,6/2-6[8:1],2,2/8-3[8:1],8,81,1p5[8:1]*v6[8:1],,1,,4,3,2h[8:1],8,7p5[8:3],,78,,4,3,2,1,8,
{16}57,,6,5,7,5,6,,8,1,8,,2,1,2,1,3b,,3b,,3,4,3,5,4,5,4,6,5,6,4,5,3h[8:1],,1,8,7,6,5,4,1,2,3,4,15,8,7,6,5h[8:1]/1,,3,4,2,5,1,,6,2,7,3,8-4[8:1],,
{8},,,3,4,,4,3,,,,6,5,,5,6,,7/2-6[8:1],1,7-4[8:1]/2,8,7/1-5[8:1],8,17,8,
{16}1,,1,1,1,,1,1,1,1,1,1,
{32}1,2,3,4,1,8,7,6,
