&title=歌唱するキカイ
&artist=阿修(あしゅう)
&first=0.02
&des=歌唱的机会
&lv_5=13
&des_5=歌唱的机会
&inote_5=
(145){4},{8}7,6,5,4>1[8:3],{16},5,,,{4}5,
{8}6,7,8,1>4[8:3],{16},8,,,{4}8,
{8}7,6,5,4>1[8:3],{16},5,,,{4}5,
{8}6,7,8,1>4[8:3],{16},8,,,{8}8h[4:1],
,,7/3,6/2,1/5<8[8:3],{16},2,,,{4}2,
{8}3,2,1,8<5[8:3],{16},1,,,{4}1,
{8}2,3,4,5<8[8:3],{16},4,,,{4}4,
{8}3,2,1,8<5[8:5],{16},1,,,{8}1h[2:1],
,,,,1s5[8:5],{16},7,,,{8}7h[2:1],
,,,,4z8[8:5],{16},7,,,{8}7h[2:1],
,,,,6<2[8:3],{16},1,,,{8}2<6[8:3],
,,,,3h[8:5],,,{4}8,
7,{8}5,5-8[8:7],,,{1}4h[8:7],
{4}8,{8}7,6,5,4/3V14[8:3]*pp4[8:3],,,,,,4,
3,2-6[8:1],,2/1-5[8:1],
,1/8-4[8:1],,8/7h[4:1],,6-3[4:1],{16}7,7,,,{4}8h[4:1],
{8}3V14[4:1],3,3/4q3[4:1],,,7>2[4:1],
,2v4[4:1],,,,3v8[8:1],{16}5,5,,6,
{4}6h[8:5],{8}8,1,2,3v6[8:5],{16},8,,,{8}8,
7,7,5,5,6-3[4:1],{16},7,,,{4}7h[4:1],
{8}2-5[4:1],6,5-2[4:1],6,{16},6,,,{8}6h[2:1],
3,2,1,{2}8,
{8},,2,4,{2}5,
{8},,,,,2,3,4,
3,4,5,4,5,6,5,6,
7,8-5[4:1],8,5-3[4:1],5,2h[4:1],,,3,
4,5,4,5,6,5,6,
7<3[4:1],7,3>7[4:1],3,,4h[4:1],,,5,
6,7,6,7,8,7,8,
1,2-5[4:1],2,5-8[4:1],5,4h[4:1],,,5,
6,7,6,7,8,7-2[4:1],7,
2<4[8:3],2b,,,,3,2,2,
,2,{16},2,,,5,5,{8}3,4,4,
,4,{16},4,,,5,5,{8}3,2,2,
,2,{16},2,,,5,5,{8}2,1,1,
,1,{16},1,,,5,5,{8}1,2,2,
,2,{16},2,,,5,5,{8}2,3,3,
,3,{16},3,,,5,5,{8}3,4,4,
,4,{16}4,5,{8}4,{4}6b,{16}3,4,{8}2,
{16}6,5w1[0.931##0.2069],{8}7,,,,5b/Cf,,,,,,,{2}8<5[4:7],
,,,1>4[4:7],
,,,7-2-7[8:13],
{8},,,,,,,,,,,3V14[2:1]*pp4[2:1],
,,,,,,6b,
{16}3x,3x,5x,5xh[16:13],,,,,,,,,,,,,,,{8}3-8[8:1],
4,3/5-7[8:1],4,
{4}5q8[8:9],{8}4,3,{2}2h[8:7],
{8},,,,2<6[2:1],2,2,6,
{4}6>1[1:1],{8}7,7,{2}7h[8:7],
{8},,,,2-5[8:1],2,7-3[8:1],7,
{4}7pp2[8:9],{8}5,5,{2}5h[8:7],
{8},,,,5-1[8:1],1-5[8:1],,,{4}6-2-6[8:3],
6,{8},4-1[8:1],4,8-5[8:1],
8,4-1[8:1],4,8-5[8:1],8,3-8[8:1],3,7-4[8:1],
7,3-8[8:1],3,7-4[8:1],7,2-7[8:1],2,6-3[8:1],
6,2-7[8:1],2,5,{4}5bw1[8:1],5b,
4bw8[8:1],4b,{8}6,6-8[8:1],6,5-1[8:1],
5,6-8[8:1],6,5-1[8:1],5,6-8[8:1],6,4-2[8:1],
4,6-8[8:1],6,4-2[8:1],4,5-1[8:1],5,4-2[8:1],
4,5-1[8:1],5,4,{4}4bw8[8:1],4b,
5bw1[8:1],5b,{8},1-3[8:1],5,1-7[8:1],
5,1-3[8:1],5,1-7[8:1],5,1-4[8:1],5,1-6[8:1],
5,1-4[8:1],5,1-6[8:1],5,1>3[8:1],5,1-7[8:1],
5,1>3[8:1],5,1,{4}5bw1[8:1],5b,
4bw8[8:1],4b,{8},7-4[8:1],8,1-5[8:1],
8,7-3[8:1],7,8-4[8:1],8,2-7[8:1],2,6-3[8:1],
6,8-6[8:1],8,3-1[8:1],3,6,6,6/2,
6/2,3/7,3/7,8/4,1/5,5/1,{4}5h[8:1]/1h[8:1],
{8}5/1,5/1,{4}5<1[2:7]/1>5[2:7],{2}5b/1b,
{1},,,{4},{8}7h[4:1],
{16}1,2>5[16:5],{8}3,6,{16},6,,,{4}6,
{8}4h[4:1],{16}1,8<5[16:5],{8}7,3,{16},3,,,{4}3,
{8}6h[4:1],{16}1,2>5[16:5],{8}3,7,{16},7,,,{4}7,
{8}4h[4:1],{16}1,8<5[16:5],{8}7,3,{16},3,,,{4}3,
{8}6h[4:1],{16}2,1,{8}8-4[4:1],5,{16},5,,,{4}5,
{8}3h[4:1],{16}6,7,{8}8-4[4:1],2,{16},2,,,{4}2,
{8}5h[4:1],{16}1,8,{8}7-3[4:1],6,{16},6,,,{4}6,
{8}2h[4:1],{16}7,8,{8}1-5[4:1],3,{16},3,,,{4}3,
{8}6h[4:1],{16}2,1,{8}8-3[4:1],5,{16},5,,,{4}5,
{8}2h[4:1],{16}6,7,{8}8-5[4:1],3,{16},3,,,{4}3,
{8}6h[4:1],{16}2,1,{8}8-3[4:1],5,{16},5,,,{4}5,
{8}2h[4:1],{16}6,7,{8}8-5[4:1],3,{16},3,,,{4}3bh[4:1],
{8}6b,7b,{2}8b,
E
