&title=カリスマ煉獄天神
&artist=森羅万象
&first=0
&des=AsukaHana
&wholebpm=137
&lv_5=14+
&inote_5=(137){1},
{8}3>3[8:5],,7,6,5h[4:1],,,,{16}5<4[8:3],4,6,3,{8}5,4>5[8:3],4,,,,2h[8:3],3,4,5h[8:3],,6^3[8:1],7,8,1h[8:3],2,3,4,2h[8:3],3,4,5b,7h[8:3],6,5,4h[8:3],,3^6[8:1],2,1,8h[8:3],7,6,5,7h[8:3],6,5b,4,2V41[4:1],3,1,8h[8:3],,7^2[8:1],6,5,4-1[8:1],3,5,6,3-8[8:1],2,4,5b,7V58[4:1],6,8,1h[8:3],,2^7[8:1],3,4,5-8[8:1],6,4,3,6v1[8:1],4,6b>8[4:1],2,36,,
4,3,2h[4:1],,4,4,2,6pp5[8:3],3,4,5>8[8:3],5p8[4:1],,,,,7,7,7h[4:1],,5,5,7,3qq4[8:3],6,5,4,5h[4:1],,,{16}3,4,3,4,2,5,2,5,{8}3h[8:1],4h[8:1],5h[8:1],6h[8:1],7-3[8:1],4^7[8:1],7^2[8:1],4,3qq4[8:3],,,,7v1[8:1]*v5[8:1],,7b-3[8:1],,2v8[8:1]*v4[8:1]/7,,2b-6[8:1],,1bv4[8:1]*v8[8:1]/2,,1b,,{16}7,5,6,3,7,1,6,4,
3/7-4[8:1],,5-1[8:1],4,7,,5,,8-4[8:1],7,6-1[8:1],5,48,,6,,2-5[8:1],7,1,8,2-8[8:1],,1,1,2b-5[8:1],,3h[8:1],,2b-8[8:1],,8h[8:1],,
2,6,6,1,7,8,5,3,1-5[8:1],1,4^1[8:1],4,1<6[8:1],,,,4q5[4:1],,5,,4/7^4[8:1],,8,8,7b-3[8:1],,2h[8:1],,7b-5[8:1],,4-8[8:1],,
7,,4,,6,6,1,1,8-3[8:1]/7,,1^6[8:1],7,8,,,,4-8[8:1],,3,,4^1[8:1]/5-2[8:1],,6,,4b-7[8:1]/5b^8[8:1],,,,4b/5b,,,,
82,,56,,4-2[8:1],35,,6,46,,7,7,8,8,1,1h[16:7],2,3,4,,3b,4,5,,2b/8b,3b/7b,46,,3b/7b,4b/6b,5b-1[8:1],,
{32}3b/7b-3[8:1],6,5,4,3,2,1,8,{16}7,,2,,5-1[8:1]/6,,4,2,5,,3-7[8:1],,4,6,3,,5h[4:1],,1,1,{32}2b,3,4,5,6-3[8:1],7,5b/8b,4,3,2,1,8,{16}7b/6b,,1^4[8:1],,,18,,,7,,5b/6b,,7b/8b,,1b/2b,,3b/4b-8[8:1],,{32}6b/2b-6[8:1],3,4,5,6,7,8,1,{16}2,,7,,4-8[8:1]/3,,5,7,4,,6-2[8:1],,5,3,6,,4h[4:1],,8,8,{32}7b,6,5,4,3-6[8:1],2,4b/1b,5,6,7,8,1,{16}2b/3b,,8^5[8:1],,,81,,,2,,3b,4,3b,4,3b,5,3b-7[8:1],6,{32}5b-1[8:1],4,3,2,1,8,7,6,{16}5,,2,,3^8[8:1]/4,,2,5,3,,6^1[8:1],,7,4,6,,3h[4:1],,8,8,{32}7b,6,5,4,3-6[8:1],2,4b/1b,5,6,7,8,1,{16}2b/3b,,8^5[8:1],,,81,,,2,,1-3[8:1],1,6-8[8:1],6,1b,,6b-2[8:1],,{32}4b-8[8:1],5,6,7,8,1,2,3,{16}4,,7,,6/5^8[8:1]*^2[8:1],,4,6,,,,,1s5[8:4],,,,,,,,
{16},,,,,,,,4h[8:7],,,,5,,,,5,,,5,,,5,,5h[4:1]/4,,4,,4h[4:1],,,,5h[8:7],,,,4,,,,4,,,4,,,4,,45,,45,,4h[4:1]/5,,,,5h[4:1],,,,4,,5h[4:1],,4,,,4,5h[4:1],,4,,4,,5h[4:1],4,4,,4,,4/5h[4:1],,4,,4,,45,,5,5,4,4,5-2[8:1],5,4,4,{32}4b-7[8:1]/5b,3,2,1,8b,,,,4b/5b-2[8:1],6,7,8,1b,,,,4b/5b,3,2,1,8b,,,,1b/8b,2b/7b,3b/6b,4b/5b,,,,,
{32}2-6[8:1],,4,,8-4[512:63],,7,,2,,,,8^5[8:1],,,,1b,2,3,4,8-3[8:1],,,,1b,2,3,4,5-1[8:1]/8,,,,6-8[8:1],,,,5,,6,,6,,,,1^4[8:1],,,,8b,7,6,5,1-6[8:1],,,,8b,7,6,5,4-8[8:1]/1,,,,,,,,4,,1,,1-3[8:1],,,,3/4-7[8:1],,,,1-5[512:63],,,,4,,1,,1,,,,8b,7,6,5,4,3,2,1,8b/4b,7,6,5,4b-8[8:1]/8b,3,2,1,8b/4b,7,6,5,4bw8[8:1],,,,,,,,,,,,,,,,
7-3[8:1],,5,,1-5[512:63],,2,,7,,,,1^4[8:1],,,,8b,7,6,5,1-6[8:1],,,,8b,7,6,5,4b-7[8:1]/1b,,,,3V52[512:95],,,,4,,,,3,,,,8^5[8:1],,,,1b,2,3;,4,8-3[8:1],,,,1b,2,3,4,5-1[8:1]/8,,,,,,,,5,,8,,8-2[8:1],,,,6/3^6[8:1],,,,8-4[8:1],,,,3,,8,,8,,,,5h[8:5],,,,6,,,,4,,,,3,,,,2,,,,1b-5[8:1],48,37,26,15,8,7,6,1b^6[8:1]/5b^2[8:1],,,,,,,,
1b/5b,,,,,,,,1b-6[8:1]/5b-2[8:1],26,37,48,,,,,1b/5b,,,,,,,,15,,,,3b-8[8:1]/7b-4[8:1],,,,,,,,7b/3b,,,,,,,,7b<4[8:1]/3b,48,51,62,3>8[8:1]/7,,,,7-3[8:1],,,,3z7[8:3],,,,7,,,,,,,,1,,,,5p1[8:1],,,,1p5[8:1],,,,5^2[32:3],,,,,,,,1,8,7,6,5b/1b-4[8:1],,,,,,,,1-6[8:1]/7,,,,8,,,,13,,,,2b-5[8:1]*V47[16:3],,,,,,,,2b,,,,,,,,
{32}3-7[8:1],,4,,1^6[8:1],,8,,3,,,,1-5[8:1],,,,2b,3,4,5,1^6[8:1],,,,8b,1,2,3,4b-2[8:1]/1b,,,,5-1[8:1],,,,4,,,,5,,,,8-4[8:1],,,,7b,6,5,4,8^3[8:1],,,,1b,8,7,6,5b/8b,,,,,,,,5bv2[8:1]/6b,,,,1bqq8[4:1]/2b,,,,5b,,,,1b,,,,,,,,2h[8:1],,,,1,8,7,6,2b/5b,3,4,5,6,7,8,1,2b/6b,3,4,5,6,7,8,1,2b-4[8:1]/7b-5[8:1],,,,18,,,,2b/7b,,,,,,,,8h[4:1],,,,7p2[8:1],6,5,4,3,,,,7,,,,6p1[8:1],5,4,3,2,,,,6,,,,5p8[8:1],4,3,2,1,,,,5,,,,4p7[8:1],3,2,1,8,,,,4bq5[4:1],,,,3b,,,,4b,,,,2b,,,,1h[4:1],,,,2q7[8:1],3,4,5,6,,,,2,,,,3q8[8:1],4,5,6,7,,,,3,,,,4q1[8:1],5,6,7,8,,,,4,,,,5q2[8:1],6,7,8,1,,,,5bp4[4:1],,,,6b,,,,5b,,,,7b,,,,{16}8,7,61,2,38,7,62,3,47,6,52,3,47,6,53,4,5b^2[8:1],5b,5b^8[8:1],5b,5b-1[8:1],,,,,,,,2bp3[16:3]/8b,2b/8b,2b/8bq2[4:1],2b/8b,2b>8[4:1]/8b,,,,,,,,,,,,,,,,,,,,,,E
