&title=Gravity
&artist=M2U
&first=0.015
&des=gugugaga
&des_5=
&lv_5=13+
&inote_5=(128){4},,,,{8}5/4,
3,2/6,{16}7,1,8w4[8:1],4,6,2,{4}8b,
4/6h[8:1],{8}4/6h[8:1],3,4/6h[8:1],{16}4,5,{4}3h[8:1],
5/3h[8:1],{8}5/3h[8:1],6,5/3h[8:1],{16}5,4,{4}6h[8:1],
5/7h[8:1],{8}4/6h[8:1],3,2/4h[8:1],{16}3,5,{4}4-6[8:1],
4/2h[8:1],{8}5/3h[8:1],6,7/5h[8:1],{16}6,4,{4}5p1[8:1],
5/7h[8:1],{8}5/2h[8:1],7,5/6h[8:1],{16}3,3,{4}4h[8:1],
5/2h[8:1],{8}7/4h[8:1],5,3/7h[8:1],{16}1,1,{4}5h[8:1],
4/2h[8:1],{8}6/4h[8:1],8,5/6h[8:1],{16}3,3,{4}5h[8:1],
{8}3/4,6,7/4,{16}2,8,1w5[8:1],5,3,7,{4}1b,
{8}4/2,5,6/3,7,3/5,6,4/7,8,
{4}5/8-5[8:1],3/8-3[8:1],{8}6/8,6,7,4,
5/7,4,3/6,2,6/4,3,5/2,1,
{4}4/1>4[8:1],7/1<6[8:1],{16}1/3,{8},{16}4,{8}4h[8:1],7<4[8:1],
3,7p3[8:1],2,7>2[8:1],1,7,4,4-2[8:1],
,4-8[8:1],6,4>1[8:1],5,4,7,8>3[8:1],
,6,7,8p4[8:1],,3,2,1pp4[8:3],
{4}5,6,7,1b/8b,
{8}6h[4:1]/2-4[8:1],{4},{8}7>2[8:1],,3p6[16:3],,5p4[4:1],
,4,,1,2/4,3,5/6,7-1[8:1],
,2-6[8:1],3,5-8[8:1],,7/5-2[8:1],,5/3q5[4:1],
,3/1,,6,8,3/1<6[8:1],4,1p5[8:1],
,1/2,3,4/2,,8/1>4[8:1],7,6/1q5[8:1],
,1,8,4/7p2[16:3],,1,1,1h[4:1],
,8,7,5/6h[4:1],,4,7,5/4h[4:1],
,6,5w1[8:1],2/8,{4}5,7b/3bq7[2:1],
{1}1h[4:3],
{2}8<2[2:1],1q7[16:5],
8>6[2:1],7p2[16:5],
{4}8z4[4:1],{8}3>6[16:5],3p6[16:3],{2},{4}4/3h[8:1],
3h[8:1]/5<2[8:3],4h[8:1],4h[8:1],
5h[8:1]/1<4[8:3],5h[8:1],3h[8:1],2h[8:1],
1h[8:1]/3>6[8:3],8h[8:1],5h[8:1],4h[8:1],
{8}3/8h[8:1],2,6/1h[8:1],7,{16}8w4[8:1],8,1,7,{4}8b,
6b-8[8:1]/1b-5[8:1],6/1qq2[4:1],{16}1/3,{8},{16}4,{8}4,1/2,
{4}3>8[8:1]/8-4[8:1],3/8pp5[4:1],{16}8/6,{8},{16}7,{8}7,8/4,
{4}2>5[8:1]/6<8[8:1],6/2pp1[4:1],{16}2/1,{8},{16}7,{8}7,8/6,
{4}2>5[8:1],{8}5/2,7,8p4[8:1],{16}7,4,{8}8,2,
{4}1b>4[8:1]/5bp1[8:1],5/1qq6[4:1],{16}4/1,{8},{16}2,{8}2,7/8,
{4}5<8[8:1]/1p4[8:1],1/5qq2[4:1],{16}5/1,{8},{16}7,{8}7,1/8,
{4}6>3[8:1]/2<7[8:1],6/2qq5[4:1],{16}4/2,{8},{16}6,{8}6,3/8,
{4}6<1[8:1]/1>4[8:1],6/1,{16}8w4[8:1],4,6,2,{4}8b,
{32}6b/2b<8[12:1],3,{16}4,{8},{32}2/6pp5[4:1],5,{16}4,{8},{16}8/6,{8},{16}2,{8}2,1/4,
{32}2/6>4[12:1],7,{16}8,{8},{32}6/2pp1[4:1],1,{16}8,{8},{16}2/4,{8},{16}7,{8}7,8/5,
{32}6/2<8[12:1],3,{16}4,{8},{32}2/6pp4[4:1],5,{16}4,{8},{16}6/8,{8},{16}2,{8}2,5/1,
{4}8q4[8:1],{8}8/6,7,8/2>5[8:1],{16}5,5,{8}2,8,
{32}3b/7b>1[12:1],6,{16}5,{8},{32}7/3qq5[4:1],4,{16}5,{8},{16}3/1,{8},{16}7,{8}7,8/4,
{32}7/3<5[12:1],2,{16}1,{8},{32}3/7qq1[4:1],8,{16}1,{8},{16}7/5,{8},{16}3,{8}3,4/8,
{32}2/7,1/6,{16}8/5,{8},{32}7/2-6[8:1],3/8,{16}4/1,{8},{16}2/6,{8},{16}7,{8}7,4,
{4}5b/3b-7[8:1],{8}3/6<1[8:1],5,6/2-6[8:1],3,2/8-5[16:3],8h[4:1],
{4},{8}1-4[16:3],1h[4:1],{4},{8}2-7[16:3],2h[4:1],
{4},{8}3-6[16:3],3h[4:1],{4},{8}4-1[16:3],4h[4:1],
{4},{8}5-8[16:3],5h[4:1],{4},{8}4-1[16:3],4h[4:1],
{4},{8}5-8[16:3],5h[4:1],{4},{8}7,5,
5b-7[12:1],4,5,4,4-2[12:1],5,4,5,
5-1[12:1],4-2[12:1],5,4,5-7[12:1],4-8[12:1],5,4,
5-1[12:1],4-2[12:1],5-7[12:1],4-8[12:1],5w1[8:1],4,{4},2h[2:1]/8h[2:1],
{2},{48}1bs5[8:1]*-5[8:1],2/8,3/7,4/6,{6}5,
{4}1,{16}3,3,7,7,4-1[8:1],8,5,6,{4}4V61[16:3],
4/8,{16}2,2,6,6,3-8[8:1],5,2,4,{4}3V58[16:3],
3/1,{16}2,2,6,6,1-4[8:1],5,8,7,{4}1V74[16:3],
1/5,{16}2,2,5,5,3,4,1,6,{48}8bz4[8:1]*v5[8:1],1/7,2/6,3/5,{6}4,
{4}8,{16}7,7,3,3,5-1[8:1],2,8,4,{4}5V38[16:3],
5/6,{16}7,7,3,3,8-4[8:1],4,6,2,{4}8V25[16:3],
8/6,{16}7,7,4,4,6,3,8,1,{4}2-5[8:1]/6-4[8:1],
6-1[8:1]/2-8[8:1],2/6,{16}7,4,5,2,{48}1b-5[8:1]/8bz4[8:1],2/7,3/6,4/5,{6},{4}1/8,
{16}7,2,4,2,8-6[12:1],3,5-2[8:1],3,{8}8-4[8:1],5,
{4}8,{16}2,7,5,7,1-7[12:1],6,4-7[8:1],6,{8}1-5[8:1],4,
{4}1,{16}8,3,5,3,7-5[12:1],2,4-1[8:1],2,{8}7-3[8:1],4,
{4}7,{16}1,6,4,6,2,7,5,7,{48}1bs5[8:1]/8bz4[8:1],7/2,6/3,5/4,{6},{4}8/1,
{16}1,4,4,4,2v5[8:1],5,5V31[16:3],5,{8}2,7,
{48}8b,7,6,5,{6},{16}7,4,4,4,6v3[8:1],3,3V58[16:3],3,{8}6,2,
{48}1b,2,3,4,{6},{16}2,6,6,6,3-8[8:1],7,7-4[8:1],7,{8}3,7,
2,3V17[8:1]/4V28[8:1],8V64[8:1]/7V53[8:1],3/4,{4},{48}1b,2b/8b,3b/7b,4b/6b,{6}5b,
{4}7/3h[8:1],{16}6h[16:1],3,4,3,7h[16:1],4,5,4,{4}5h[8:1]/6h[8:1],
1/7h[8:1],{16}3h[16:1],6,5,6,2h[16:1],5,4,5,{4}3h[8:1]/4h[8:1],
8/2h[8:1],{16}6h[16:1],3,5,4,7h[16:1],5,6,4,{4}6h[8:1]/5h[8:1],
2/5h[8:1],{16}3h[16:1],6,4,5,2-7[8:1]*-5[8:1],7,4,5,{4}2b,
4/7h[8:1],{16}4h[16:1],6,5,6,3h[16:1],5,4,5,{4}4h[8:1]/3h[8:1],
5/3h[8:1],{16}5h[16:1],3,4,3,6h[16:1],4,5,4,{4}6h[8:1]/5h[8:1],
4/5h[8:1],{16}4h[16:1],5,4,5,3h[16:1],4,3,4,{4}2h[8:1]/5h[8:1],
4/3h[8:1],{16}5h[16:1],4h[16:1],5h[16:1],4h[16:1],5w1[8:1],4,5,4,{4}5b,
E
