&title=Clumsy Trick
&artist=姫崎莉波 (CV. 薄井友里) feat. 渡辺 翔
&first=0.83
&des=Aza
&lv_5=12+
&inote_5=(131)
{4}1h[1:1]/8,8,8,8,{1}7<2[2:1],{8}4/5,3/6,{16}5x,4h[16:3],,6x,5h[8:1],,4x,5x,4x,5x,,,
{8}2b/7b,8,{16}1,8,,1h[8:1],{8},7,6,5,{16}3,4,3,4h[8:1],,2,4,2h[8:1],,,{8}8h[4:1]/3h[4:1],,,2x/5x,5,{16}6,5,,7h[8:1],,8,8,,,1,2,3,{8}8x/4x,3/7,8x/4x,3/7,{2}8x-5[8:1]/4x-1[8:1],
{4}2>4[12:1]/5,6,7<5[12:1]/4,3,2>4[12:1]/4,6,5/7<5[12:1],3,{8}2>4[12:1]/4,5,5,,7<5[12:1]/5,4,{4}4,3-1[8:1],6-8[8:1],4-1[8:1],5b,{8}7-5[12:1]/8,8,1,,2-4[12:1]/1,1,8,,7-4[8:1]/8,1,2,,1/2-5[8:1],8,7,6x,4/5,3/6,4/5,3/6,4h[8:1]/5h[8:1],,1>4[8:1],2,8<5[8:1],7,1x-5[8:1],,8x-4[8:1],,2q7b[8:1],6,
7hx[8:3],,,8,7/8,1/6,5/2q7b[8:1],8,7hx[8:3],,,8,7/8,1/6,5/2q7b[8:1],8,7hx[8:3],,,8,7/8,1/6,2/5,3h[4:1]/4-1[8:1],{2},{4}D8/E8/B8/B7/1bx,B4/B5/E5/D5/2bxq7b[8:1],7hx[8:3],{8},8,1/8,{16}1,8,{8},2,1/3,1/3h[4:1],,4,3/5,4h[4:1]/6h[4:1],{4},7<3[4:1],3<7[4:1],7,{8}2>6[4:1],2,6>8[8:3],,,5h[8:1],,5,6,7,7/8,1/6,5/2q7>2[8:3],8,{2}7h[8:3],
{4}4h[8:1]/5h[8:1],{16}3/6,,,3,5,,4x,,6,4,7x,,{8}1x/8x,C,1x/8x,C,1x/7x,C,2xqq6[2:1]/8xpp4[2:1],C,{2},{4},{8}3/5,5x/6x,
2-6[8:1]/5,,{16}2b/7,Cf,{8},1/8,2h[8:1],,{16}4,3,{4}4-7[8:1],3-8[8:1]/4,3b/4,{8}5,4h[4:1]/6,,5,3/5>2[8:1],6,7h[4:1],,1,8,1/7,2/6,{4}1-5[8:1]/7-3[8:1],1b/7b,{8}4/6,3x/4x,4/7-3[8:1],,{16}1/7b,Cf,{8},2/8,7h[8:1],,{16}6,5,{4}7<4[8:1],7/8>3[8:1],7/8b,{8}5/6,4/5h[4:1],,2,3h[4:1]/4,5,6,4/7,4/7,,1q6[8:1]/8,2,{4}1/8p3[8:1],1q6[8:1]/8,1/8p3[8:1],
{2}8b>6[4:3],{8},,,Ch[8:5],{2},{4}A7/D8/A8,1>7[4:3],1x,,{8},1,2,3h[8:1],,8,7,6h[8:1],,4,3,2<3[4:3],{2}5h[4:1],Ch[1:1],{2},{4}A1/D2/A2,8<3[4:3],{2}8x,{8},1,2,1h[8:1],,8,7,8h[8:1],,2,,3,
{16}4p7[4:1]/5,,,6,,,6,,5q1[4:1],,,3,,,3<6p1[2:1],,{4},7h[4:1],{8},8,8,1,{2}2>5p8[2:1],{8},7,6,5h[2:1],,2,3,4,{16}4/5,,,4/5,,,3/6,,2pp2[4:1]/7,,,8,,,7,,6pp6[4:1],,,1,,,2,,{2}3<5-2-8[2:1],{8},7h[8:1],{8},6,{4}6>4[4:1],4x,3p7[4:1],7x,5q1[4:1],1x,2q6[4:1],6x,
{1}8b<1[1:2],,{4}B8,B7,B6,B5,B4,B3,{8}B2,C,{4}B1,Cf/E1,E8,E7/B2,E6,E5/C,E4,E3/B6,E2,{8}A8,A7,A6,A5,A4,A3,A2,A1,{1}8bx<7V53>2v8b[8:5],{16}1,1h[8:1],,6,6h[8:1],,4,4h[16:5],{4},{8}6,3x/4x,
4/8w4[8:1],,{16}8b,Cf,{8},,1/2,,{16}3,8,{4}4>1[8:1],4/5<8[8:1],4/5b,{8}3,1/2pp5[4:1],,8,7,6,6,4,3/5,2,1-5[8:1]/6,7,{4}1-3[8:1]*-7[8:1],1b,{8}4/5,5/7,5/1w5[8:1],,{16}1b,Cf,{8},,7/8,,{16}6,5,{4}7-3[8:1],1-5[8:1]/7,1b/8,{8}4,3h[4:1]/4,,5,4/6h[4:1],5,4,3,2/4h[4:1],,3>8[8:1],3,{4}3/5q2[8:1],4p7[8:1]/5,4x/6x,
{8}1b>6[4:1],8,6>1[4:1],7,1>5[4:1],8,6>1[4:1],7,{4}8x-4[8:1],8v2[8:1]*v6[8:1],8b,{8}1/5,5h[4:1],,3,3h[4:1]/7,7,6,2/6,4,3/7,5<8[8:1],5,{4}4>1[8:1]/5,4b/5,{8}7/8,1,2/8<3[4:1],2,3<8[4:1],1,8<3[4:1],2,3<8[4:1],2,{4}1-5[8:1],1v3[8:1]*v7[8:1],1b,{8}2/5,6h[4:1],,5,3h[4:1]/7,5,6,4/8,3h[4:1],,2-6[8:1],1,{4}2b/8-4[8:1],1-5[8:1]/8b,1b/7h[4:1],4x-8[8:1],4x/5x-1[8:1],4x/5x,2-5V38[2:1]/7-4V61[2:1],
{1}2b/7b,{8}3/4,2/5,{16}3,4,,2/5,,,3/4,,{4}2/5,7h[4:1],6h[4:1],5h[4:1],4h[4:1],3<6[4:1],E3,E1,E7,{16}5/6,,4/7,,6,5,,4/7,,,5/6,,4/7,,,,B5/B4,,B2/B7,,B6,B3,,E7/E3,,,E5,,{4}C,1>4[8:1],8<5[8:1],1-5[8:1],8-4[8:1],{1}1>8[2:1],{16}E5,,C,,E2,E3,E4,E5,{4}C,B6/B7,{1}8<1[2:1],{8}E8,E7,E6,E5,E4,{16}E3,,,E2,,,E1,,,C,,,E5,,E7/B6/B3/E3,
