&title=東京テディベア
&artist=Neru/鏡音リン
&first=0
&lv_5=13+
&des_5=FaNM0U
&inote_5=
(204){4},,,,,,,,,8,
8<3[2:1],{8}1,1,
,1pp4[8:5],{4}1,,8,
8h[8:3],{8}4,4,,5/3,6/2,1/7<2[8:7],
,,,,,,,,,,1,
1,{4}1>6[2:1],{8}8,8,
,7qq2[8:5],{4}7,,3,
3h[8:3],{8}1,1,,1,2/8,7/3>6[8:7],
,,,,,,,,,,{4}5,
5<8[2:1],{8}4,4,
,3qq8[8:5],{4}3,,7,
7,1h[4:7]/7>4>7[2:3],{8},,,,,,,,,,,,,,6,
5,{4}6,{8}7/4,4/7,
,5/2,{4}2/5-1b[8:1],,8<5[8:1]/2>5[8:1],
2/8,{8}1,1-5[8:1],,6/1,7,Cf/8bq1V35[4:3],
,,,,,,,,{4}6/1,
{8}7/8q5[4:1],7,7,7,,8h[4:1]/3h[4:1],
,,2/1<4[8:3],2,2,2,{4}2,
8/1-5[8:1],1/7,{8}6,6pp2[2:1],5,4h[8:5],
,,,,{4}1>4[8:1],1/8,
7-3[8:1],7/1,{8}2,2,3/4,6-8[8:1]/5qq2[8:5],
,,,,{4}1-6[8:1],1,
{8}5/1,1/5,2/6,6/2,3/7,3/7,4/8,5/1-5[8:1],
,1/2,{16},,4,3,{8}4,5/2,5-7[8:1]/2-4[8:1],5/2,
,,{4}8,8/1h[8:3],{8}5,5-1[8:1],
,2,{4}2-4[8:1],,8,
1/8h[4:1],{8}2,2pp6[8:5],,1,8,7h[8:11],
,,,,{4}6,5,
4,3-5[8:1],5,{8}6,6-1[8:1],
,5,{4}5-2[8:1],{16},,1-5[8:1],8,{8}7-4[8:1],1,
{4}7b,{8}5/2,2/5<8[8:1],,2,3,4w8[4:1],
,,,,,7-3[8:1],,B1f/B2/B8/7bqq3[8:5],
,,,,,,1,1h[8:5],
,,{4}3,4,{8}5,3/5pp1[8:5],
,,,,,,2,2-6[8:1],
,2x,{16},,7,5,{8}7,6/4,{4}4/6-3[8:1],
{8}3,2,{4}1h[8:3],{8},4-7[8:1],,4/2-5[8:1],
,8,{4}8h[8:3],{8},5-1[8:1],,5/7-4[8:1],
,7,2,5/3,{4}3/5,{8}4v1[8:1]/6v1[8:1],6/4,
{16},,,,2,8,2,8,2,8,2,8,{8}2,7/1-5[8:1],
,,{4}6b-1[8:1],{8}5,4-8[8:1],,4/7-3[8:1],
,,{4}1b-6[8:1],{8}4,5>1[4:1],,1<7-4[4:1],
,,{4}4,{8}6/2,6-1[8:1]/2-5[8:1],,2/6qq3[2:1],
,,{4}8,{8}7,7-4[8:1],,7/1>4[8:1],
,,{4}5b-1[8:1],{8}6,7-3[8:1],,7/2-5[8:1],
,,{4}6b-1[8:1],{8}3,4-8[8:1],,4/7h[8:5],
,,,,E8/B7/E6/B8/B5/B2/B3/B6/B1/B4f,,,E8/B7/B6/B1/B4/C/E6f,
{16},,,,7,1,7,1,7,1,7,1,,,{8}2/8-4[8:1],
,,{4}3b-7[8:1],{8}4,5-1[8:1],,5/2>5[8:1],
,,{4}8b-4[8:1],{8}2,1<5[4:1],,5>3-8[4:1],
,,{4}8,{8}6/1,6-1[8:1]/1-5[8:1],,6/1qq4[2:1],
,,{4}4,{8}3,2-6[8:1],,2/4h[8:3],
,,{4}5h[8:3],{8}6,6-3[8:1],,6/2h[8:3],
,,{4}1h[8:3],{8}8,8-4[8:1],,8/1,
,5/3,3,3,6/4,6,6,5/2,
2,2,7/4,7,7,6/5>2[8:1],,8b-4[8:1],
,,{4}1,2h[4:1],{8}4,3-6[8:1],
,,{4}8,8h[4:1],{8}5,7<4[8:1],
,,{4}3-8[8:1],4-7[8:1],{8}1,1-5[8:1],
,1/8,,7-4[8:1],,7/1,,2h[2:1],
,1,8,7,8,1,{16}8,7,1,2,
7,6,2,3,6,5,3,4,6,5,3,4,{8}6x,6x-3[8:1],
,1,1,2/4,3/5,4/6,,8b/Cf,
{1},,,,,,,,{4},E6,
{2}4x>1[2:1],
{4},E8,{2}1-5[2:1],
{4},E6,{8}4qq7[4:5],,,E5,
,,{4}A5,{8}D6,A6,,B6,
,,{4}6,{8}4,4,,5/3,
,,{4}6/4,{8}1/8,8/1,,5<8[2:1]/4>1[2:1],
,,,,,,,7b/1b,
{16},,8,2,8,2,7,3,7,3,6,4,6,4,{8}5-1[8:1],
,,{4}2b,{16}8b/Cf,,,1b/Cf,,,{8}7b/Cf,
,,{4}8b/2b,{16}1,7,1,7,{8}1,6/8-3[8:1],
,,{4}5b-1[8:1],{8}4,3V17[4:1],,7-5-2[4:1],
,,{4}1,{8}5/1,5-8[8:1]/1-4[8:1],,1/5qq2[2:1],
,,{4}1,{8}1,1-5[8:1],8,7<4[8:1],
,,{4}3b-8[8:1],{8}4,5-8[8:1],,5/1-5[8:1],
,,{4}8bqq8[4:1],{8}2,3h[4:1],{24},,,8x,1,2,
3,4,5,6,7,8,1,2,3,4,5,6,{32}1s5[8:1],8,7,6,5,4,3,2,{4}1b/Cf,
,6/4-8[8:1],{8}7,7<4[8:1],{32},,,,8b/7b,1,2,3,
,,,,,,,,{4}3/5-1[8:1],{8}2,2>5[8:1],{32},,,,2b/1b,8,7,6,
,,,,,,,,{4}4/5<8[8:1],{8}1,1w5[8:1],,1b,
,,{4}7-2[8:1]/3-6[8:1],3/7,{8}1/5,5h[4:1]/1h[4:1],
{16},,,,1,5,8,4,7,3,6,2,5,1,{8}4b-8[8:1],
,,{4}1h[8:3],{8}8,8-4[8:1],,8/7h[8:3],
,,{4}5h[8:3],{8}6,6-3[8:1],,6/3,
,4/2,4/2,4/2,3/5,3/5,3/5,4/6,
4/6,4/6,5/7,5/7,5/7-3[8:1],7/5,,,{4}2/4,
{8}4/2,4,2/4<6[8:1],4,{4}4/2v5[8:1],
{8},,4/6,4,6/4>2[8:1],4,{4}4/6,
5/1-5[8:1],1/7,{8}6,6-1[8:1],5,4-8[8:1],
,7,7,7,7/8,7/8,{4}7/8-4[8:1],
8/1-6[8:1],1,{8}5,5,6/4,6pp1[4:3]/4-2[8:1],
,,,,{4}2-5[8:1],2,
{8}8/4,8/4,7/3,7/3,6/2,6/2,5/1,5-7[8:1]/1-3[8:1],
,5-8[8:1]/1-4[8:1],,5-1[8:1]/1-5[8:1],,,,,{4}2b/6b-8[8:1],
B1/B2,2/6-8[8:1],B1/B2,
3/6-8[8:1],B1/B2,3/6-8[8:1],B1/B2,
2/5-8[8:1],B1/B2,2/5-8[8:1],B1/B2,
6/4-2[8:1],B7/E8,6/4-2[8:1],B7/E8,
5/3-1[8:1],B7/E8,5/3-1[8:1],B7/E8,
6/3-1[8:1],B7/E8,6/3-1[8:1],7-3[8:1],
7bx/1x,{8}2/4,2/4<7[8:1],,2,3,{32}8b/4bV68[1:1]*V28[1:1],B8f,C,B4,
E
&lv_7=1
&des_7=
&inote_7=
(204)
E
