&title=MARENYX
&artist=BlackY x Aoi
&first=0.509
&des=zouzouzou
&lv_5=14+
&des_5=zouzouzou
&inote_5=
(195){4},,,,{1}7h[4:7]/2-5-3-8[2:3],
,2h[4:7]/5v6-8-2-7[2:3],
,6h[4:7]/1-4-2-7-3[2:3],
,7h[4:3]/2qq5[2:1],
{4}3h[2:1]/8-4[8:1],8,{24},,,3,2,1h[6:1],,,,5,6,7h[24:7],
{4}2-4b[8:1],2qq5[8:7],{8},,,,,,,,3,
6,4,7,
5bh[8:7],,,8-6[8:1],,8-3[8:1],,8,
,4,{4}4,{16}7,6,5,4,1,2,3,4,
{8}A8h[2:1]/B7h[16:9]/B8h[8:5]/E8h[16:11]/D8h[4:3],,,,,,,2,
,6/4,{4}4/6-2>4-7[2:1],,,{2}3qq5[4:3],
{8}6,6,7,7,
{2}8qq5[4:3],{8}3,3,2,2,
{12}E1,E2,E3,E7,E6,E5,E2,E3,E4,E1,E8,E7,
{16}2x,3,4,5,6,7,8,1,2/6x,5,4,3,2,1,8,7,
{4}6/3h[8:1],3h[8:1],3h[8:1]/7-4[8:1],3h[8:1],
3h[8:1]/5-7[8:1],3h[8:1],3h[8:1]/8-6[8:1],3h[8:1],
3h[8:1]/5-8[8:1],2h[8:1],2h[8:1]/1-6[8:1],2h[8:1],
2h[8:1]/5v8[8:1],2h[8:1],7-4[8:1]/2-5[8:1],E5,
6h[8:1]/3-1[8:1],6h[8:1],6h[8:1]/2-5[8:1],6h[8:1],
6h[8:1]/4-2[8:1],6h[8:1],6h[8:1]/1-3[8:1],6h[8:1],
7h[8:1]/4-1[8:1],7h[8:1],7h[8:1]/8-3[8:1],7h[8:1],
7h[8:1]/4v1[8:1],7h[8:1],{8}3/6,2-5[8:1]/7-4[8:1],,2b/7b,
,,4/7h[8:1],3,4/6h[8:1],2,3/5h[8:1],1-7[8:1],
6h[8:1],1-3[8:1],5h[8:1],1,6,8-4[8:1],,8b/2b,
,6/3,3/6,8/1,7-4[8:1],1-5[8:1],7>5[16:5],1,
{32},,,,A3,D4,A4,D5,{8}A5,2h[8:1],{16}B7/E8/B8,,,B3/E3/B2,,,{8}B6/E6/B5,
1,1pp4[2:1],7,1,{16},,,,,,8,7,
{8}6h[4:1],{16}1,2,{8}3h[8:1],5b,{16}2b-7[16:1],,,6b-3[16:1],,,{8}8bh[8:3],
,,7-4[8:1],7,1-5[8:1],1,7,7,
{16}4,6,4,6,3,7,3,7,2,6,2,6,1,5,1,5,
{24}E1,E2,E3,E4,{6}E5h[8:3],{24},E1,E8,E7,{4}E6,1-5[8:1],
{1}1-3-8-5-7b[8:5],
{24}E2,E3,E4,E5,{6}E6h[8:3],{24},E2,E1,E8,{4}E7,2-6[8:1],
{1}2-4-8-5-7b[8:5],
{8}3,2,6/4,8,7/5,2,6/4,8,
2/1,3,8/7,6,2/8,4,7/1,5,
{16}2,1,3,8,{8}2h[8:1],{16}7,8,6,1,{8}7h[8:1],{16}3,4,2,5,
{8}1h[8:1],{16}6,5,7,4,{8}8,{24}2/1h[8:1],3,4,5,,,7/8h[8:1],6,5,4,{48},,,,{16}3,
5,2,6,3,5,2,7,{32}4b,3,2,1,,,,,5b,6,7,8,,,,,{1}Ch[8:3]/B2h[16:7]/B6h[2:1]/B3h[16:9]/E7h[8:5]/E3h[16:11]/B7h[4:3],
{4}6/4,{8}2/8,{16}1,1,1,1,{8}1,3/7,{16}1,1,
1,1,{8}1,6/3,{16}7,5,{8}7,{16}2,4,{8}2h[4:1],8-4[8:1],
7,{16}8/3,2,1,8,7,6,5,4,{8}1b,{4}1b,
{16}3,4,{8}2h[8:1],{16}6,5,{8}7h[8:1],{32}E2,E3,E4,E5,E6,E7,E8,E1,{4}E2,
{8}7x/1x,{24}7,6,5h[8:1],B7,B6,{6}B5,{24}2,3,4h[8:1],B2,B3,B4,,,,{8}8,
3h[8:1],4h[8:1],5h[8:1],6h[8:1],2h[8:1],4h[8:1],6h[8:1],8h[8:1],
{16}2,3,4,5,8,7,6,5,3,2,1,8,5,6,7,8,
{8}1/2,2/1,7/4,4/7,{6}2h[12:1]/5h[12:1],8h[12:1]/1h[12:1],{24},{8}7/3,
{4}7-4[8:1]/3-8[8:1],C,{16}1-5[8:1],2,3,4,{4}1,
{16}8-4[8:1],1,2,3,{4}8,{2}7-3[8:1]/6z2[8:1],
{4}1b,{16}2,8,2,8,3,7,3,7,4,6,4,6,
{6}3h[12:1]/E7/B7,2h[12:1]/B4/B5,8h[12:1]/C/B3,1h[12:1]/B5/B6,{24}7h[12:1]/B3/E3,,,,,4,,,{4}4-2-7-1-3-5[8:5],
E6h[8:1],E7h[8:1],E8h[8:1],
1-7-4-6-8-2[8:5],B2h[8:1],B3h[8:1],B4h[8:1],
{8}5x-2[8:1],5x,7-4[8:1],7,1-5[8:1],1,8,8h[4:1],
{16}3,4,5,6,7,8,1,2,3/6,5,4,3,2,1,8,7,
{4}6/3-5[8:1],{8}3,8-4[8:1],,8,{4}2-5[8:1],
{8}2,6-8[8:1],,6,{4}1w5[8:1],1,
7-4[8:1],{8}3,2-5[8:1],,6,{4}8-4[8:1],
{8}3,1-6[8:1],,4,4,5h[8:1],6h[8:1],7h[8:1],
{4}8-4[8:1],{8}8/4,2-5[8:1],,2/5,{4}7-1[8:1],
{8}7/3,5-1[8:1],,5/7,{4}6w2[8:1],C,
{8}4,4,8,8,7/3,7,6/2,6,
{16}5,1,5,1,4,8,4,8,{4}4w8b[8:1],4b,
{64}2b>3<4<5<6<7>8>1>2[2:7],6b<6b[2:7],{1},,,{4},,,{16},,,{32},{8}E7,
E6,E5,B7,C,B3,B8,B2/E2,
,B6/E6,E4/D4,B8/E8,2,2,6,6,
1,1,7,7,6/2,4,5,3h[4:1],
{16},,7,6,5,4,3,2,1-5[8:1],8,7,6,{4}5/1,
{8}6h[4:3]/4h[4:3],,,,,,,5/2,
,4/7,{4}7h[8:5]/4h[8:5],{8},,,,5h[4:3]/1h[4:3],
,,,,,,4/7,
,6/2,,8/4,{4}8-5[8:1]/4-1[8:1],4b/8b,
2qq5[4:3],{8},,,,6b,6b-2[8:1],
,4b,{4}4b-8[8:1],7-3[8:1],2b/7b,
{8}1,1,3,3,5,5,7,7,
{16}2,1,2,1,4,5,4,5,{32}2,3,4,5,{8}7b,{32}1,2,3,4,{8}6b,
{1}8z4<3[2:3]`1s5>6b[2:3],
{12},,,,,,,,,,,,7,
5,6,1,3,2,8,6,7,2,4,3,
{16}8,7,6,5,1,2,3,4,{32}7,6,5,4,3,2,1,8,{4}3b/7b,
{8}7/4,{16}6,5,{8}7-5[8:1],{16}4,4,{8}7-3[8:1],{16}2,2,{8}7,1-5[8:1],
8,1/5,7-4[8:1],3,{32}7/1b-5[8:1],2,3,4,,,,,{4}8b/1,
{8}6h[8:1],{16}2,4,{8}2-6[8:1],{16}5,5,{8}2,{16}7,7,{8}1-5[8:1],8,
1/7-3[8:1],6,7/2,2,{16}1b,8,7,6,5/1b,8,7,6,
{8}5/2-5[8:1],{16}3,1,{8}2,7-3[8:1],{16}8,6,{8}7,2,1-5[12:1],
{24}6bx,7,8,1V75[8:1],,,4bx,3,2,1,,,{8}2h[8:1],4h[8:1],6h[8:1],8h[8:1],
{16}2,1,3,8,4,7,3,6,1,7,2,6,{8}5bx/3bxh[8:1],5bx,
{32}1,2,3,4,8,7,6,5,{8}2,2,{6}6h[12:1]/B4/E4/B3,2h[12:1]/B7/B6/E7,{24},{8}4bh[8:3]/8bh[8:3],
{24},,,,,,,7x/3x,6x/2x,5x/1x,,,{8}7b-3[8:1],{16}2,2,{8}7,1-5[8:1],
8,1/5,7-4[8:1],3,{32}7/1b-5[8:1],2,3,4,,,,,{4}1/8b,
{8}6h[8:1],{16}2,4,{8}2-6[8:1],{16}5,5,{8}2,{16}7,7,{8}1-5[8:1],8,
1/7-3[8:1],6,7/1,1,{24}2-5[8:1],3,4,8-4[8:1],7,6,{8}2b,8b,
{24}2x,3x,4x,5x,6x,7x,8x,1x,2xh[24:7],E6fh[4:1]/B5fh[8:3]/B6fh[2:1],,,,,,,,,,,,,,,2x,
1x,8x,7x,6x,5x,4x,3x,2xh[24:7],E8fh[4:1]/B7fh[8:3]/B8fh[2:1],,,,,,,,,,,,,,,{8}3,
3,6,6,4/7,4/7,5/2,2h[8:1]/5h[8:1],
{16},,3b,4,{8}3,8/1,{32}7b,6,5,4,,,1b,2,3,4,,,{8}8,
{32}8b,1/7,2/6,5h[32:5]/3h[32:5],,,,,,,,,{8}6h[4:1]/4h[4:1],,,{4}5h[4:1]/2h[4:1],
{8},4h[8:3]/7h[4:1],{32},,,,,,,,1b,E1,B8,B7,{16}E7,{32}5b,E5,B4,B3,{16}E3,{8}8bh[8:3],
,,{4}B2/B3/E3f,{16}6,5,{8}7,{16}3,4,{8}2,
7<4[8:1],6,7/1-5[8:1],2,{16}1/6,7,8,1,2,3,4,5,
{8}6/1,{16}3,4,{8}3,2/7-1[8:1],6,7/3-8[8:1],4,3,
{16}7b,6,5,4,7b,6,5,4,8b,,,3b/5b,,,{8}4b/7b,
{16}2,5,4,5,2,6,5,6,1b,,,2b/5b,,,{8}8bh[8:1]/3bh[8:1],
{16},,2,6,3,8,2,6h[8:1],4b,3,2,1,5b,6,7,8,
3v8[4:1],,,3,,,{8}7-4[4:1],{16},7,{32},,,,,1-5[4:1],,,,,,1,
,,,,,7,,,,,{16}7,,,{8}4/2,{16}3,5,{8}3,7/1,
{16}2b/8h[4:1],3,4,5,{8}6,{16}7b/1h[4:1],6,5,4,{8}3,{16}1b/7h[8:1],2,3,4,
5/8h[16:3],,,2,,,{8}6/3,{16}6/3,,,5/2,,,{8}4/7,
5/3,2,4/6,7,5/3,1,4/6,{32}8b/2b,3/7,4/6,5,
,,,,{8}2/6,{24}3,4,3,4,3,4,{6}5xh[12:1]/2xh[12:1],7h[12:1]/4h[12:1],3h[12:1]/5h[12:1],
{16}2bx,1,{32}2,3,{16}4,7bx,8,{32}7,6,{16}5,2bx,1,{32}2,3,4,5,{16}7bx,8,{32}7,6,5,4,
{24}1,2,3,4,5/8,7,6,5,4,1bx,2,3,4,8/5x,1,2,3,4,7/5x,8,1,{96}2,,,7bx/3bx,,,{32}4/8,5/1,
{1}6b-4-1>8[24:83]`2b-8-5<4b[24:83],
,,,Ch[1:4],
B7,
B2/B1,
B4/E4/B3,
B6/B5/E6/E7,
E
