&title=驫麤~とりぷるばか~
&artist=ラマーズP / 初音ミク & 重音テト & 亞北ネル
&first=0
&des_1=三个笨蛋
&des_2=三个笨蛋
&des_3=三个笨蛋
&des_4=三个笨蛋
&des_5=三个笨蛋
&lv_5=13+
&des_6=三个笨蛋
&des_7=三个笨蛋
&des=三个笨蛋
&clock_count=4
&inote_5=(180){1},
||笨蛋1
{16}E2h[16:3],E3h[16:3],E4h[16:4],,,,,,
E6h[16:3],E7h[16:3],E8h[16:4],,,,,,
E2h[16:3],E3h[16:3],E4h[16:4],,,,,,
E6h[16:3],E7h[16:3],E8h[16:4],,,,,,
4,,,,,,4,,4,,,,,,6,,,,6,,6,,5,,5-1[8:1],,6,,5,,7,,
8b<5[6:1],,,,,,3,,3h[8:3],,,,,,4-2[8:1],,4,,,,6-4[8:1],,6,,,,,,
1>5[8:6],,,,1<5b[8:4],,,,,,,,,,,,,,,,,,
E4,,E3,,E2,,E8,,E7,,E6,,4bx,,
3bx/5bx<8[6:1],,,,,,2,,2h[8:3],,,,,,7-1[8:1],,7,,,,3-1[8:1],,3,,,,,,
5<1[8:6]*-1b[8:1],,,,5>1[8:4],,,,,,,,,,,,,,,,,,
E2,,E3,,E4,,E6,,E7,,E8/4bx,,3bx/5bx,,
2bx-4[8:1]/6bx,,,,
6,,6,,7,,7,,5-3[8:1]/6,,,,
6,,6,,2,,2,,3-1[8:1]/4,,,,
4,,4,,2,,2,,5-7[8:1]`3-8[8:1],,,,,,,,
1,,1,,6,,6,,7-5[8:1]/2,,,,
3,,3,,5,,5,,4/6-4[8:1],,,,
2,,2,,4,,4,,1-3[8:1]/3,,,,
4,,4,,5,,5,,4/6-8[8:1],,,,
3,,3,,8,,8,,1/2-4[8:1],,,,
7,,7,,5,,5,,E7h[4:1]/5-2b[8:1],,,,,,,,
1-5b[8:1]/E4h[4:1],,,,,,,,
3,,3,,6,,6,,4-1[8:1]/5,,,,
7,,7,,1,,1,,2-7[8:1]/6,,,,
5,,5,,8,,8,,1/4-7[8:1],,,,
2,,2,,8,,8,,7/3-6[8:1],,,,
8,,8,,5,,5,,4/7-2[8:1],,,,
3,,3,,1,,1,,4/8-5[8:1],,,,
3b,,3b,,4b,,2b,,1b,,8b,,7b,,6bV83b[3:1],,5b,,4bv1b[8:1],,,,,,,,
5,,5,,4,,5,,6,,7,,8-5[8:1],,1-4[8:1],,,,,,
6b,,,,2b/7b,,2b/7b,,,,
1-6[8:1],,1,,8,,7,,5,,6,,4,,5,,3-8[8:1],,4-6[8:1],,3,,4,,,,
7h[16:4]/E1,,,,E5,,
6-3[8:1],,6,,4,,4,,1,,2,,8,,1,,7-5[8:1],,8-3[8:1],,7,,8,,,,
4h[4:1]/E3,,,,E1,,
5-2[8:1],,5,,6,,6,,7,,1,,8,,2,,1-6[8:1],,3-5[8:1],,1,,3,,,,
7h[16:4]/E5,,,,E3,,
8-4[8:1],,8,,2,,2,,3,,1,,4,,6,,5p3[4:1],,,,5,,7,,,,1b,,1b,,,,
||笨蛋2
{8}2h[8:1]/6h[8:1],,3h[8:1]/8-5b[4:1]*-2v3-5[4:1],,8b,,,,6v8[8:1]/1-5[8:1],,1,,5h[4:1],7,6,5,3>8[8:1]/4,,7,,6<1[8:1]/5,,4q5[4:1],,1h[4:1],,,
,8<5[8:1]*p4[8:1],,,,3h[4:1],,4,35,6h[4:1],,5,46,3-1[8:1],,4-8[8:1],,5-7[8:1],,1,,2h[8:3],4,5,6,7h[4:1],4,3,2,6h[8:1],1,7h[8:1],5,6b-1[8:1]*-2[8:1],7b,,,7h[8:1]/3h[8:1],,6h[8:1]/1-4b[4:1]*-7v6-4[4:1],,1b,,,,3v1[8:1]/8-5[8:1],,38,,4h[4:1],2,3,4,6<1[8:1]/5,,2,,3>8[8:1]/4,,5p4[4:1],,8h[4:1],,,,1>4b[8:1]*q5b[8:1],,,,6h[4:1],,5,64,3h[4:1],,4,53,6-8[8:1],,5-1[8:1]/6,,4-2[8:1]/5,,8,,7h[8:3],5,4,3,2h[4:1],5,6,7,18,2,35,6,1v4[8:1]/7v4[8:1],17,,,
6h[8:3],5,4,3,2h[8:2],3,4,5-1[8:1]/2-5[8:1],,25,,E1h[8:3],E5h[8:2],,Chf[4:1],,4b>5b[4:5],,,,
{4},,,,,,
{16}3,4,2,,5h[8:1],,4,,6,5,7,,4h[8:1],,5,,3,4,2,,5h[8:1],,4,,6,5,7,,4bh[8:1]/8bh[8:1],,,,3-1[8:1],4,3,,4,,5,,6-8[8:1],5,6,,4,,,,3>1[8:1],4,3,,4,,5,,6<8[8:1],5,6,,4,,,,3-1[8:1],4,3,,4h[8:1],,,,6-8[8:1],5,6,,4,,,,3>1[8:1],,4,,5,,6,,7h[4:1],,8b,,1b,,,,3,,4,,2h[8:1]/5h[8:1],,,,6,,5,,47,,47,,3,,3h[8:1],,4,,4h[8:1],,5,,5h[8:1],,6,,6h[8:1],,5>3[8:1],,7,,7,,,,8-5[8:1],,,,1,,,,2h[8:1],,4,,3h[8:1],,5,,4-1[8:1],,4,,1,,8,,7<4[4:1],,,,,,,,8>3[4:1],,,,3<6[4:1],,,,7<4[4:1],,,,,,,,8>3[4:1],,,,3<6[4:1],,,,7V53-1[2:1],,,,,,,,2h[4:1],,,,,,,,3h[8:3],,E4,,E5,,E6,,4h[4:1],,5x,,6x,,,,
{8}7h[4:1],,5,,3h[8:3],4,5h[8:1],,6h[8:1]/4h[8:1],,5h[8:1]/7h[8:1],,4h[8:1]/6h[8:1],,5/7-5[8:1],7,4,3h[8:1],4-8[8:1],,2-4[8:1],,1,,8h[8:3],5,4,3,7-3[8:1],7,3,2,1-4[8:1],,,,8-5[8:1],,,,
1>4[8:1],,,,8<5[8:1],,,,2q4[2:1],,,5,5h[4:1],,,,3bh[8:1],4b,2b/5b,6bh[4:1]/1b,,5b,7b/3b,,
||笨蛋3
{8}2,1,3,4,1,8,4,5,
8,7,6,5p7[4:1]*p7[4:1],,4>8[4:1],,,6,
6,5,7,8,5,4,8,
1,4,3,2p4[4:1]*p4[4:1],,1<5[4:1],,,3,
3,4,2,7,8,6,5,
1,2,4,3p1[4:1]*p1[4:1],,8<6[8:1],,,2,
2,3,4,5h[4:1],8,7,6,
{4}5-8[8:1],{8}4,3,,1b,{4}8b/2b,
{8}6/1,5,3/8-5b[4:1]*-2v3-5[4:1],4,{2}8b,
{4}4-8[8:1]/3v1[8:1],4/3,{8}8h[4:1],2,3,4,
{4}1p5[8:1]/5p1[8:1],5<8[8:1]/1>4[8:1],1p5[8:1]/5p1[8:1],1/5,
{8}2,4,{4}3<6[4:1],6<1[4:1],1>4[4:1],
{8}4,5,{4}6h[4:1],2,3>1b[8:1]/8-4[8:1],
3-7[8:1]/8-6b[8:1],3/8>6[4:1],8/1,2,
{8}8/1,1,6,5,8/1,8,3,4,
2-4[8:1],6-8[8:1],2-6[8:1],6,2,1bx,,,7/4,
8,2/5-8b[4:1]*-3v2-8[4:1],1,{2}5b,
{4}1-5[8:1]/2v4[8:1],1/2,{8}5h[4:1],3,2,1,
{4}8v3[8:1]/4v7[8:1],4>1[8:1]/8<5[8:1],4v7[8:1]/8v3[8:1],4/8,
1-6[4:1],6-2[4:1],2-5[4:1],5,
6<8[8:1],5-1[8:1],4,{8}3,3,
{4}2>4[8:1],1-5[8:1],{8}8,8,{4}7>4[4:1],
4>6[4:1],6<3[4:1],3>5[4:1],4,
{24}E3,B3,B5,B4,E3,B3,B5,B4,E3,B3,B5,B4,E3,B3,B5,B4,E3,B3,{4}Cf,
{16},,2,3,{8}2,{16}7,6,{8}7,{16}4>5[2:1],5,4,5,{8}4b,
,,,,,3h[8:1]/7h[8:1],,,{4}2<7[8:1],
7>2[8:1],2<7[8:1],7>2[8:1],
2<7[8:1],7>2[8:1],2<7[8:1],7>2[8:1],
2<7[8:1],7>2[8:1],2<7[8:1],7>2[8:1],
2<7[8:1],7>2[8:1],{16}3,,,4x,{8}5x,6,
{4}7>2[8:1],2<7[8:1],7>2[8:1],2<7[8:1],
7>2[8:1],2<7[8:1],7>2[8:1],2<7[8:1],
7>2[8:1],2<7[8:1],7>2[8:1],2<7[8:1],
7>2[8:1],2<7[8:1],{16}7,,,6x,{8}5x,4,
3>7[8:1],3,{4}7>3[8:1],{8}3>7[8:1],6,{4}7>3[8:1],
{8}3>7[8:1],6,{4}7>3[8:1],{8}3>7[8:1],6,{4}7>3[8:1],
{8}3>7[8:1],6,{4}7>3[8:1],{8}3>7[8:1],6,{4}7>3[8:1],
{8}3>7[8:1],6,{4}7>3[8:1],{16}4,,,6x,{8}5x,7,
6<2[8:1],6,{4}2<6[8:1],{8}6<2[8:1],3,{4}2<6[8:1],
{8}6<2[8:1],3,{4}2<6[8:1],{8}6<2[8:1],3,{4}2<6[8:1],
{8}6<2[8:1],3,{4}2<6[8:1],{8}6<2[8:1],3,{4}2<6[8:1],
{8}4x,3h,5x<4[2:1],4h,{2}Cf,
||笨蛋1
{16}1h[4:1],,,,5,,5q7[8:3],,,,,,2h[2:1],,,,,,,,
7,,5pp7[8:1],,6,,1pp3[8:1]/5,,,,1,,
8h[2:1],,,,4,,3,,2-4[8:1],,,,8-6[8:1],,8>6[8:4],,,,,,,,,,,,
8qq6[8:1],,,,8,,2,,3,,4-2[8:1],,5,,,,6-8[8:1],,6>1[8:4],,,,,,,,,,,,
7,,7-4[8:1],,,,1-3-8-4-7[8:5],,1,,,,,,,,,,,,
6x,,6x,,8,,1,,2,,3/7<4[8:1],,,,1b,,1b,,,,
2/8,,4,,1/7,,5-8[8:1]*-3v2-8b[8:1],,2/8,,5,,,,
7x-4[8:1],,1xv3[8:1],,,,1,,,,7h[4:1],,4,,3,,2,,1h[4:1],,4,,5,,6,,
7<4[8:1],,,,8-4[8:1]/7,,1,,2h[8:1],,,,2,,4-1[8:1],3,4,,,,3,,2,,
1/7-4[8:1],,,,2<7[8:1]/7,,,,2/6>3[8:1],,,,3/6,,2,,1v4[8:1],,,,7-3[8:1]/1,,,,
7/8>3[4:1],,,,3<6[4:1],,,,6<1[4:1],,,,,,5-2[8:1],,5-8[8:1],,,,,,
1,,1,,8/3,,7,,2,,1>3[8:1]/6>3[8:1],,1/6,,,,,,
2/8,,4,,1/7,,5-8[8:1]*-3v2-8b[8:1],,2/8,,5,,,,
7xv5[8:1],,8x-3[8:1],,,,8,,6h[4:1],,4,,5,,7,,8,,1h[4:1],,5,,6,,7,,
8<5[8:1],,,,1-5[8:1]/8,,,,2h[8:1]/1,,,,3,,4-8[8:1],5,4,,,,5,,6,,
1/7qq7[4:1],,,,2/7,,,,3,,,,4/7p2[8:1],,5/6,,3<6[8:1]/7,,,,1/3,,,,
8q5[4:1],,,,5q2[4:1],,,,3h[8:3],,,,,,1,,1pp1[4:1],,8,,7,,6,,
6-8[8:1],,2-4[8:1],,6-3[8:1],,2-7[8:1],,6,,2,,5,,5,,
1/7,,4,,2/8,,5-8[8:1]*-3v2-8b[8:1],,1/7,,5,,,,
7x-4[8:1],,8xv2[8:1],,,,8,,5h[4:1],,1,,2,,3,,4,,
5h[4:1],,6,,7,,8,,1-7[8:1],,,,2-6[8:1]/1,,,,2/3h[8:1],,,,3,,
4-1[8:1],6,5,,4,,6,,7,,8v6[8:1]*v5[8:1],,,,8,,,,4>1[8:1]/7,,,,
4/8,,7,,6-2b[8:1],,,,4w8b[8:1]/6,,,,4,,,,
2qq4[3:1]/6,,,,2/5,,,,,,6-1[8:1],,6-3[8:1],,,,,,8,,7,,6/4,,5,,4,,2-5[8:1]/6-3[8:1],,
1/7,,,,,,
4/6,,8,,3/5,,1-4[8:1]*-7v6-4b[8:1],,4/6,,1,,,,
6x-1[8:1],,5xv3[8:1],,,,5,,8h[4:1],,2,,3,,4,,5,,5h[4:1],,8,,1,,2,,
3>8[8:1],,,,5q2[8:1]/3,,,,4h[8:1]/5,,,,4,,3<5[8:1]/8<5[8:1],,3/8,,,,,,,,
4/6<1[8:1],,,,3<6[8:1]/6,,,,3/8-4[8:1],,,,1/8,,2,,3<6[8:1],,,,8<5[8:1]/3,,,,
3<8[16:4]/8,,,,8>4[4:1],,,,4qq8[2:1],,,,,,7,,7<4[8:1],,,,,,,,
1,,1,,3/8,,7,,1>4[8:1]/6>4[8:1],,1/6,,,,,,
6h[8:3],,5,,4,,3,,2h[8:2],,3,,4,,5-1[8:1]/2-5[8:1],,,,
2/5,,,,E1h[8:3],,E5h[8:2],,,,Chf[4:1],,,,4>5b[4:5],,,,
{8},,,,,,,,,,,,,,3bh[4:1],,8v3[8:1],,B6/B7,,,,3hb[4:1],,8v3[8:1],,B6/B7.,,B3/B2,,
{16}3,2,1,,6,7,8,,3,2,1h[8:1],,6,,,,6,7,8,,3,2,1,,6,7,8h[8:1],,4,,,,3,2,1,,6,7,8,,3,2,1h[8:1],,6,,,,6,7,8,,3,2,1,,6,7,8h[8:2],,4,,3,,,,7b,5b,6b,,45,,3-5[8:1],,6-4[8:1],,3,,6,,,,2b,4b,3b,,45,,7-4[8:1],,2-5[8:1],,7pp2[4:16],,2,,7hb[4:16],,,,,,
&inote_7=(180){4},{16},,,,,,,,,,,,E2h[16:3],
E3h[16:3],{8}E4h[4:1],{16},,,,E6h[16:3],E7h[16:3],{8}E8h[4:1],{16},,,,E2h[16:3],
E3h[16:3],{8}E4h[4:1],{16},,,,E6h[16:3],E7h[16:3],{8}E8h[4:1],,,4,
,,4,4,,,6,
,6,6,5,5-1[8:1],6,5,7,
8b<5[6:1],,,3,3h[8:3],,,4-2[8:1],
{4}4,{8}6-4[8:1],6,,,{4}1>5[4:3],
{1}1<5b[2:1],
{8},E4,E3,E2,E8,E7,E6,4bx,
3bx/5bx<8[6:1],,,2,2h[8:3],,,7-1[8:1],
{4}7,{8}3-1[8:1],3,,,{4}5<1[4:3]*-1b[8:1],
{1}5>1[2:1],
{8},E2,E3,E4,E6,E7,4bx/E8,3bx/5bx,
{4}6bx/2bx-4[8:1],{8}6,6,7,7,{4}6/5-3[8:1],
{8}6,6,2,2,{4}4/3-1[8:1],{8}4,4,
2,2,{4}5-7[8:1]`3-8[8:1],{8},,1,1,
6,6,{4}2/7-5[8:1],{8}3,3,5,5,
{4}4/6-4[8:1],{8}2,2,4,4,{4}3/1-3[8:1],
{8}4,4,5,5,{4}4/6-8[8:1],{8}3,3,
8,8,{4}1/2-4[8:1],{8}7,7,5,5,
{2}E7h[4:1]/5-2b[8:1],E4h[4:1]/1-5b[8:1],
{8}3,3,6,6,{4}5/4-1[8:1],{8}7,7,
1,1,{4}6/2-7[8:1],{8}5,5,8,8,
{4}1/4-7[8:1],{8}2,2,8,8,{4}7/3-6[8:1],
{8}8,8,5,5,{4}4/7-2[8:1],{8}3,3,
1,1,{4}4/8-5[8:1],{8}3b,3b,4b,2b,
1b,8b,7b,6bV83b[3:1],5b,4bv1b[8:1],,,,5,
5,4,5,6,7,8-5[8:1],
1-4[8:1],,,6b,,2b/7b,{4}2b/7b,
{8}1-6[8:1],1,8,7,5,6,4,5,
3-8[8:1],4-6[8:1],3,4,,7h[4:1]/E1,,E5,
6-3[8:1],6,4,4,1,2,8,1,
7-5[8:1],8-3[8:1],7,8,,4h[4:1]/E3,,E1,
5-2[8:1],5,6,6,7,1,8,2,
1-6[8:1],3-5[8:1],1,3,,7h[4:1]/E5,,E3,
8-4[8:1],8,2,2,3,1,4,6,
{4}5p3[4:1],{8}5,7,,1b,{4}1b,
2h[8:1]/6h[8:1],3h[8:1]/8-5b[4:1]*-2v3-5[4:1],{2}8b,
{4}6v8[8:1]/1-5[8:1],1,{8}5h[4:1],7,6,5,
{4}4/3>8[8:1],7,5/6<1[8:1],4q5[4:1],
{2}1h[4:1],8<5[8:1]*p4[8:1],
{4}3h[4:1],{8}4,3/5,{4}6h[4:1],{8}5,4/6,
{4}3-1[8:1],4-8[8:1],5-7[8:1],1,
{8}2h[8:3],4,5,6,7h[4:1],4,3,2,
6h[8:1],1,7h[8:1],5,6b-1[8:1]*-2[8:1],7b,,,{4}7h[8:1]/3h[8:1],
6h[8:1]/1-4b[4:1]*-7v6-4[4:1],{2}1b,
{4}3v1[8:1]/8-5[8:1],3/8,{8}4h[4:1],2,3,4,
{4}5/6<1[8:1],2,4/3>8[8:1],5p4[4:1],
{2}8h[4:1],1>4b[8:1]*q5b[8:1],
{4}6h[4:1],{8}5,6/4,{4}3h[4:1],{8}4,5/3,
{4}6-8[8:1],6/5-1[8:1],5/4-2[8:1],8,
{8}7h[8:3],5,4,3,2h[4:1],5,6,7,
1/8,2,3/5,6,{4}1v4[8:1]/7v4[8:1],1/7,
{8}6h[8:3],5,4,3,2h[4:1],3,4,5-1[8:1]/2-5[8:1],
,2/5,,E1h[8:3],{4}E5h[4:1],Cfh[4:1],
{1}4b>5b[4:5],
{16},,,,,,,,,,,,,,,,3,
4,{8}2,5h[8:1],4,{16}6,5,{8}7,4h[8:1],5,
{16}3,4,{8}2,5h[8:1],4,{16}6,5,{8}7,{4}4bh[8:1]/8bh[8:1],
{16}3-1[8:1],4,{8}3,4,5,{16}6-8[8:1],5,{8}6,{4}4,
{16}3>1[8:1],4,{8}3,4,5,{16}6<8[8:1],5,{8}6,{4}4,
{16}3-1[8:1],4,{8}3,{4}4h[8:1],{16}6-8[8:1],5,{8}6,{4}4,
{8}3>1[8:1],4,5,6,7h[4:1],8b,{4}1b,
{8}3,4,{4}2h[8:1]/5h[8:1],{8}6,5,4/7,4/7,
3,3h[8:1],4,4h[8:1],5,5h[8:1],6,6h[8:1],
5>3[8:1],7,{4}7,8-5[8:1],1,
{8}2h[8:1],4,3h[8:1],5,4-1[8:1],4,1,8,
{2}7<4[4:1],{4}8>3[4:1],3<6[4:1],
{2}7<4[4:1],{4}8>3[4:1],3<6[4:1],
{2}7V53-1[2:1],2h[4:1],
{8}3h[8:3],E4,E5,E6,4h[4:1],5x,{4}6x,
7h[4:1],5,{8}3h[8:3],4,{4}5h[8:1],
6h[8:1]/4h[8:1],5h[8:1]/7h[8:1],4h[8:1]/6h[8:1],{8}5/7-5[8:1],7,
4,3h[8:1],{4}4-8[8:1],2-4[8:1],1,
{8}8h[8:3],5,4,3,7-3[8:1],7,3,2,
{2}1-4[8:1],8-5[8:1],
1>4[8:1],8<5[8:1],
{8}2q4[2:1],,,5,{2}5h[4:1],
{8}3bh[8:1],4b,2b/5b,1b/6bh[4:1],,5b,{4}7b/3b,
{8}2,1,3,4,1,8,4,5,
8,7,6,5p7[4:1]*p7[4:1],,4>8[4:1],,,6,
6,5,7,8,5,4,8,
1,4,3,2p4[4:1]*p4[4:1],,1<5[4:1],,,3,
3,4,2,7,8,6,5,
1,2,4,3p1[4:1]*p1[4:1],,8<6[8:1],,,2,
2,3,4,5h[4:1],8,7,6,
{4}5-8[8:1],{8}4,3,,1b,{4}8b/2b,
{8}6/1,5,3/8-5b[4:1]*-2v3-5[4:1],4,{2}8b,
{4}4-8[8:1]/3v1[8:1],4/3,{8}8h[4:1],2,3,4,
{4}1p5[8:1]/5p1[8:1],5<8[8:1]/1>4[8:1],1p5[8:1]/5p1[8:1],1/5,
{8}2,4,{4}3<6[4:1],6<1[4:1],1>4[4:1],
{8}4,5,{4}6h[4:1],2,3>1b[8:1]/8-4[8:1],
3-7[8:1]/8-6b[8:1],3/8>6[4:1],8,2,
{8}8/1,1,6,5,8/1,8,3,4,
2-4[8:1],6-8[8:1],2-6[8:1],6,2,1bx,,,7/4,
8,2/5-8b[4:1]*-3v2-8[4:1],1,{2}5b,
{4}1-5[8:1]/2v4[8:1],1/2,{8}5h[4:1],3,2,1,
{4}8v3[8:1]/4v7[8:1],4>1[8:1]/8<5[8:1],4v7[8:1]/8v3[8:1],4/8,
1-6[4:1],6-2[4:1],2-5[4:1],5,
6<8[8:1],5-1[8:1],4,{8}3,3,
{4}2>4[8:1],1-5[8:1],{8}8,8,{4}7>4[4:1],
4>6[4:1],6<3[4:1],3>5[4:1],4,
{24}E3,B3,B5,B4,E3,B3,B5,B4,E3,B3,B5,B4,E3,B3,B5,B4,E3,B3,{4}Cf,
{16},,2,3,{8}2,{16}7,6,{8}7,{16}4>5[2:1],5,4,5,{8}4b,
,,,,,3h[8:1]/7h[8:1],,,{4}2<7[8:1],
7>2[8:1],2<7[8:1],7>2[8:1],
2<7[8:1],7>2[8:1],2<7[8:1],7>2[8:1],
2<7[8:1],7>2[8:1],2<7[8:1],7>2[8:1],
2<7[8:1],7>2[8:1],{16}3,,,4x,{8}5x,6,
{4}7>2[8:1],2<7[8:1],7>2[8:1],2<7[8:1],
7>2[8:1],2<7[8:1],7>2[8:1],2<7[8:1],
7>2[8:1],2<7[8:1],7>2[8:1],2<7[8:1],
7>2[8:1],2<7[8:1],{16}7,,,6x,{8}5x,4,
3>7[8:1],3,{4}7>3[8:1],{8}3>7[8:1],6,{4}7>3[8:1],
{8}3>7[8:1],6,{4}7>3[8:1],{8}3>7[8:1],6,{4}7>3[8:1],
{8}3>7[8:1],6,{4}7>3[8:1],{8}3>7[8:1],6,{4}7>3[8:1],
{8}3>7[8:1],6,{4}7>3[8:1],{16}4,,,6x,{8}5x,7,
6<2[8:1],6,{4}2<6[8:1],{8}6<2[8:1],3,{4}2<6[8:1],
{8}6<2[8:1],3,{4}2<6[8:1],{8}6<2[8:1],3,{4}2<6[8:1],
{8}6<2[8:1],3,{4}2<6[8:1],{8}6<2[8:1],3,{4}2<6[8:1],
{8}4x,3h,5x<4[2:1],4h,{2}Cf,
E
E
