&title=Adverse Gaff
&artist=siromaru
&first=0.03
&des=Adverse G.hazd
&lv_5=14
&inote_5=(160)
{4},
{8}8h[8:1]/2,3,2h[8:1]/7,{16}8,1,7,7,5,6,2,2,4,3,
{8}8-5[8:1],1-4[8:1],8b,1b,{16}7,7,3,4,2h[8:1],,,,
{16}53,,2,,46,,1,7,2,2,4,3,7,7,5>6b[4:1],6,
{16}3h[4:1],,E5,E3,E1,E7,,,{8}2h[16:3],5,7h[16:3],4,
{4}2bw6[12:1]/Chf[4:1],,{16}1-4-2[8:1],8,2-6[8:1],1,3h[4:1],,,,
{16},,7x/2x,,8-5-7[8:1],1,7-3[8:1],8,,,,,,,,,
{8}2/8v3[8:1],17,6h[8:1]/8,,7/1v6[8:1],82,3h[8:1]/1,,
{8}Ch[4:1],,8<8[4:1],8,2z6b[8:1],,B2/Cf/B6,,
{16}1b/8b,,3,4,3,,5,4,5,,3,4,3,,5,4,
{16}5,,3,4,3,,6,5,6,,3,4,3,,6,5,
{16}6,,3,4,2`B2,,6,5,7`B7,,3,4,2`B2,,6,5,
{16}7`B7,,1,1,1,1,1,,2v4[8:1]/6v8b[8:1],,37,,26,,,,
{16}2b/7b,,6,5,6,,4,5,4,,6,5,6,,4,5,
{16}4,,6,5,6,,3,4,3,,6,5,6,,3,4,
{16}3,,6,5,E8`B7,,3,4,E2`B2,,6,5,8-2-6-4[16:3],,3,4s8b[16:3],
{16},,,,,,,,1x,1,1,1,8x,8,8,8,
{16}1xb/7xbh[2:1],,2x,3x,4x,,3x,2x,1xbh[2:1],,7x,6x,5x,,3x,4x,
{16}5xbh[2:1],,1x,8x,7x,,1x,2x,3xbh[2:1],,8x,7x,6x,,7x,6x,
{16}5xbh[2:1],,1x,2x,3x,,2x,3x,4xbh[2:1],,7x,8x,1x,,1x,8x,
{16}7x,,3,24,,6,57,,1q6[8:1]*p4[8:1],,28,,1b,,,,
{16}2xbh[2:1],,7x,6x,5x,,6x,7x,8xbh[2:1],,2x,3x,4x,,6x,5x,
{16}4xbh[2:1],,8x,1x,2x,,8x,7x,6xbh[2:1],,1x,8x,7x,,1x,2x,
{16}3xv8[8:1],,7x-4[8:1],,3,,7,,,8,1-5b[12:1]/7,,2,8,1,,
{16}8bh[8:1],,3,7,2-5-1[16:3],6,1-7-4[128#8:1],5,B2f/E3,,,,,,,,
{8}1-3-5[4:1],,5-1-3[8:3],,7h[16:1],7h[16:1],7h[16:1],7h[16:1],
{8}8-6-4[4:1],,4-8-6[8:3],,3h[16:1],3h[16:1],2h[16:1],2h[16:1],
{24}1xbh[48:1],8,7,6,5,4,{8}3h[4:1]/7,7,{24}8xbh[48:1],1,2,3,4,5,{8}6h[4:1]/2,2,
{16}8xbV62[16:3],1,2,3,4h[4:1],,,,1xbV38[16:3],8,7,6,5h[8:1],,,,
{16}5,,1,,7-4[8:1],8,,8,7,,2,,3-1[8:1],4,,4,
{16}3,,{24}7,6,5,1x-6-2-4[8:3],2,3,{16}7h[2:1],,1b,,,,,,,,
{16}8,,17,,2,2,6,6,{32}1,2,3,4,5,6,7,8,1qq4[8:3],2,3,4,5,6,7,8,
{4}1/5h[8:1],7x-3b[16:1],,,
{8}Chf[4:31]/7,,,7,7,,,7,
{8},7p2[8:3],7,,,,,,
{8}2,,,2,2,,,2,
{8},2p6[4:1],2,,,,6,6,
{8}7,,,7,7,,,7,
{8},7p3[4:1],7,,,,3,3,
{8}2,,,2,2,,,2,
{8},2qq5[8:3],2,,,,,,
{16}2b/7b,,1,8,1,,7bv4[12:1],8,6,8,7,,2,1,3,,
{16}4b/7b,,6,5,6,,2bv5[12:1],5,3,1,2,,7,8,6,,
{16}1b/5b,,2,4,3,,6b-8[12:1],5,7,5,6,,4,5,3,,
{16}2b/6b,,7,5,6,,3b-1[12:1],4,2,5,3,,8,,62,,
{16}1bw5[12:1]/Chf[4:1],,,,,,,,3,4,2,5,1,6,78,,
{16}8bw4[12:1]/Chf[4:1],,,,,,,,5,6,4,7,3,8,21,,
{16}2bw6[12:1]/Chf[4:1],,,,,,,,7bw3[12:1]/Chf[4:1],,,,,,,,
{8},6-1-5-7-3[8:3],6h[8:4],,,,,,
{16}2b-5[12:1]/8b,,3x,4,2,,7,,7b-4[12:1]/1b,,6x,5,7,,2,,
{16}2b>5[12:1]/8b,,3x,4,2,,7,,7b<4[12:1]/1b,,6x,5,7,,1,,
{16}1b-5[12:1]/7b,,3x,4,1,,8,,8b-4[12:1]/2b,,6x,5,8,,1,,
{16}1bq5[12:1]/7b,,3x,4,1,,8,,8bp4[12:1]*v3[12:1]/2b,,17,,8/Cf,,,,
{16}2b-5[12:1]/8b,,7x,6,52,,7,,7b-4[12:1]/1b,,2x,3,47,,2,,
{16}2b>5[12:1]/8b,,7x,6,52,,7,,7b<4[12:1]/1b,,2x,3,47,,1,,
{16}1b<6[12:1]/6b,,2x,3,41,,2,,8b>3[12:1]/3b,,7x,6,58,,7-4[12:1],,
{16}1q5[12:1],,7,,1,,7,,{24}1xV74[8:1]/8xV25[8:1],2x/7x,3x/6x,{16},,1xb/8xb,,,,
{16}1b-3[16:1]/7b,,2x,8,1-7[16:1],,8x,2,1-3<4[12:1],,3x,8,1-7<6[12:1],,7x,2,
{16}1-4[12:1],,3x,7,1-6[12:1],,7x,3,1-5[12:1],,4x,7,1b,,,,
{16}8-6>5[12:1]/2b,,6x,1,8-2>3[12:1],,2x,7,8-5[12:1],,6x,1,8-3[12:1],,2x,6,
{16}8bqq5[8:3]*q3[8:3],,,,,,,,,,,,1b-4[12:1]/7b,,2,,
{16}1b-6[12:1]/3x,,2x,6,1-5[12:1],,7x,5,1-6[12:1],,2x,8,1b,,,,
{16}8b-3[12:1]/6x,,7x,3,8-4[12:1],,2x,4,8-3[12:1],,7x,1,8b,,,,
{32}1,8,7,6,5,4,3,2,{16}18,,2x,3x/4b,,7x,6x/5b,,{32}1x,2x,3x/4b,,,,8x,7x,
{16}6x/5q1[12:1]*v2[12:1],,,,5xb,,,,7/8z4[12:1]*-5[12:1],,,,8b/Cf/B6/B2,,,,
{8}1>6[2:1]/Ch[2:1],,,,,,,,
{8}8V25[2:1]/2h[2:1],,,,,,,,
{8}1pp6[2:1]/6h[2:1],,,,,,,,
{8}8qq3[2:1]/3h[2:1],,,,,,,,
{4}1>3[4:1],3<5[4:1],5<7[4:1],7>1[4:1],
{4}1>4[4:1],4<7[4:1],7>2[4:1],2>5[4:1],
{8}5<1[4:1],5,1>5[4:1],1,5<1[6:1],5,1,1,
{24}2x,3,4,5,6,7,{32}8x,1,2,3,4,5,6,7,{48}8xz4[12:1],1,2,3,4,5,6,7,8,1,2,3,{4}4x/8xb/B8/Cf/B4,
{16}2xh[8:1],,4,3,5h[8:1],,7x,6,8x,7,1,8x,2>4[12:1],7,1x,6,
{16}1x<7[12:1],,6,,2x>4[12:1],,5,,1x<7[12:1],,6,,2b,,5,,
{16}7xh[8:1],,5,6,4h[8:1],,2x,3,1x,2,8,1x,7<5[12:1],2,8x,3,
{16}8x>2[12:1],,3,,7x<5[12:1],,4,,8x>2[12:1],,3,,7b,,{24}5,4,3,
{16}1/2x,,6,8,7,5,6x,4,5x,3,4,2x,1,3,8xh[8:1],,
{16}3x,4,3,25,4x,3,4,25,3x,4,3,25,4x,3,4,,
{16}8/7x,,3,1,2,4,3x,5,4x,6,5,7x,8,6,1xh[8:1],,
{16}6x,5,6,74,5x,6,5,74,6xw2b[12:1],5,6,5,,,,,
{16}2xb,6,5,6,4,6,2b,6,2b,6,5,6,4,6,2b,6,
{16}5,6,2b,6,2b,6,5,6,4,5,3,4,2h[8:1],,4,3,
{16}7xb,3,4,3,5,3,7b,3,7b,3,4,3,5,3,7b,3,
{16}4,3,7b,3,7b,3,4,3,1,2,8,1,7h[8:1],,5,6,
{16}2xbw6[12:1]/Chf[4:1],,,,,,,,1,7,{24}4,6,5,{16}8,2,{24}5,3,4,
{4}7xbw3[12:1]/Chf[4:1],,{48}1bxq6[12:1]*p4[12:1],2x/8x,3x/7x,4x/6x,5x,,{8},,,
{16}1>4[8:1]/8,,2,2h[16:3],,,,,8<5[8:1]/1,,7,7h[16:3],,,,,
{12}B6/2x,2,2,B3/7x,7,7,4x/5x,4x/5x,4x/5x,1x-5[12:1]/8x-4[12:1],2x/7x,2x/7x,
{1}1xbpp4<4b[4:9]/8xbqq5>5b[4:9]/Cf/B7/B2/B6/B3,
