&title=Χάρων
&artist=Daily天利
&first=-1.379999
&des_1=重太
&des_2=重太
&des_3=重太
&des_4=重太
&des_5=重太
&lv_5=14
&des_6=重太
&des_7=重太
&des=重太
&inote_5=(162)
{1},
{4}1bx-5[8:10]/7bx-3[8:10],,,,,,,,1qq3[8:10]/8h[8:8],,,,,,,,1pp5[4:5],,,,,,,7-5v4-2[8:4],,,,8-5[8:1]/2-5[8:1],,,
{16}6,,75,,4,,8,8,2xh[8:3],,,,5<8[8:3],,5,,,,2,,3,,4,,85,,6,5,,,
{24}7x,6x,7x,6x,,,,,,82,,,7,,,
{16}3xh[8:3],,,,8<5[8:3],,8,,,,4,,3,,2,,14,,2,4,,,
{24}2x,3x,2x,3x,,,,,,
{8}1,4,5b<8[4:1]/3,,8>3[4:1],,3-5-7[8:2],,8,,1b>4[4:1],,4<7[4:1],,7-1-3[4:1],,5,,8,8,71,71,
{16}7,5,6,2,4,3,8,1,6-1[8:1]*-4-2v5[4:2],,,,,,,,8xh[8:4],,,,,,,,6-4-7[5:1],,5,,4/6,,,,1,1,8,,8xh[8:1]/2h[8:1],,,,1-7-5[16:3],,2,,31,,,,4,4,6,,7xh[8:1]/5xh[8:1],,,,4>1[16:2],,6,,74,,,,8,8,1,,7xh[8:1]/1xh[8:1],,,,7-4[8:1],,8,,71,,,3,2bh[8:1]/4bh[8:1],,,5,6bh[8:1]/4bh[8:1],,,,8-2-4[16:3],,7,,68,,,,7,5,6,,6h[8:1]/4h[8:1],,,,4<7[8:1],,3,,24,,,,2,1,3,,8h[8:1]/4h[8:1],,,,7-5[8:1],,8,,74,,,,3,,42,,2,4,3,5,6b/4b,,,7b/8b,,,1b/3b,,1<4[4:1]/3,,,,4,3,2,1,8b,,,,6,5,6,,74,,3,,2,1,2,,83,,75,,6,5,7,,74,,83,,8,8,2,,73,,7,,6,4,5,,24,,1,,7,8,6,,5/1>5[8:2],,2,,1b/5,6,7,8,1,,,,
{24}4b,5,4,5,4,5,4,,,,,,
{16}7,5,6,,54,,3,,2,2,4,,53,,6,,7,1,8,,82,,2,,5,5,3,,24,,1,,1x-6[8:1],2,3,4,1,,,,2,3,4,5,7,6,1,2,8,7,2,3,7,7,5,6,3s7[8:3],3,5,4,,,,,,,,,1b>4[8:1],,,,7b/1<6[8:1],,,,1/2b-4[16:1],,,1b-5[16:1]/2,,,1/8b,,,,7b,,7b-4[8:1],,,,7/1b-3[16:1],,,1/8b-4[16:1],,,8/7b,,6b-1[8:1],,,,6/4b-2[16:2],,3b,,4/5b-1[16:1],,,5/6b,,,7b,,
{32}8bx-3[8:1],7x,6x,5x,,,,,
{16}8b/5,,,,6bh[8:1]/5h[8:1],,,2bh[8:1]/4h[8:1],,,8b/1b,,8<5[8:1],,1,1,8,,B2/B3/E3,,7bh[8:1]/5h[8:1],,,6h[8:1]/4bh[8:1],,,5b/3,,2>5[8:1],,1,1,2,,B8/E8/B7,,3bh[8:1]/5h[8:1],,,6bh[8:1]/4h[8:1],,,7/5b,,7,7,5,6,3,3,5,4,
{32}8,7,6,5,4,3,2,1,
{4},Ch[4:3],,,,7pp4[8:14],,,,,,,,3h[4:8],,,,,,
{8}E7,B6,B5,,6qq1b[8:12],,,E3,,,B4,,2-4[8:4],,,,,,,,4qq8b[8:12],,,D7,,,B5,,7-5[8:4],,,,,,,,
{64}2-5-3[4:6],6-1b[8:6],,,,,,,
{8},,,,,,,,,,,,,,,8-5[8:6],,,,,,,,,,,,
{16}65,,,54,,,43,,2-8-4[8:6]/5h[8:24],,,,,,,,,,,,,,,,,,,,,,1,,,,1>4[8:9],,,,,,,,,,,,,,,,,,,,,,,,,,,,,,
6,,5,,7-5-1b[8:8]/5,,,,4h[4:12],,,,,,,,,,,,,,,,,,,,,,,,5,,,,5<8b[8:6],,,,,,,,,,,,,,,,,,,,C,,,,,,,,,,,,,,,,
{4}7v6-4[8:6],1,1,2,2,3-1<8-4[8:6],7,7,6,5,5<8-4[8:5],4,3,3,
{16}2,24,,5,53,,,,6-4-8[8:6],,,,4,,,,3,,,,2,,,,1-3-7[8:6],,,,8,,,,7,,,,6,,,,5<1[8:6],,,,2,,,,3,,,,4,,,,5-3-1[8:4],,,,1,,,,8,,,,7,,,,6h[4:3]/8h[4:3],,,,
{4},,,1h[4:3]/3h[4:3],,,,7<5p4>2[8:10],,,,,,Ch[4:1],,
{8}6,6,5,5,4,4,3,3,7,7,5,5,4,4,2,2,
{16}7,8,7,8,
{32}E7,B6,B5,,
{16}2,1,2,1,2,1,
{32}E3,B3,B4,,
{16},,8,1,7,2,6,3,5,4,7b/5b,,,2b/4b,,,8bq1[8:4]/1b,,,,,,,,,,,,,,C,,,,78,,,,12,,,,
{24}8,1,8,
{32}1,8,7,6,
{16}5,2,2,4,4b,,2>5[8:1],1,7,,26,,7,7,5-8[8:1],6,4,,53,,3,,2-6[8:1],1,7,,62,,7,7,1-6[8:1],8,2,,13,,4,,7<4[8:1],8,2,,73,,2,2,8-4[8:1],1,7,,86,,6,,7-4[8:1],8,2,,73,,2,2,4>1[8:1],3,5,,64,,7-5[8:1],,8,8,7b,,,,3-1[8:1],,4,4,3b,,,,6-4[8:1],,8,8,6b,,,,2-5[8:1],,6,6,2b,,,,6h[8:1]/4h[8:1],,,1h[8:1]/2h[8:1],,,78,,2h[8:1]/4h[8:1],,,6h[8:1]/5h[8:1],,,83,,
{32}8b,7,6,5,,,2b,3,4,5,,,7b,6,5,4,
{16}2,2,4,3,6,6,4,5,1-3[8:1],,5,5,1b,,6,,7-5[8:1],,4,4,7b,,3,,2-4[8:1],,1,1,2b,,8,,6-1[8:1],,5,5,6b,,4,,3<6[8:1],,8,8,3b,,7,,8-3[8:1],,4,4,8b,,4,,2-6[8:1],,3,3,2b,,4,,75,,,,
{12}8b/1,8/1b,8bb/1,8<4[16:3]/1b,,,C,,,1b>5[16:3],,,C,,,1b<5[16:3],,,C,,,8b>4[16:3],,,C,,,
{16}65,,,24,,,81,,75,,,34,,,28,,7x,5,6,4,8xz4[8:3],6,7,5,,,,,,,,,2-5[8:1],,1,7,26,,6,,7,7,1>4[8:1],8,2,,17,,8-4[8:1],,5,5,8,,3,,2>5[8:1],6,1,7,26,,,,7-4[8:1],,8,2,73,,3,,2-6[8:1],8,3,1,24,,,,5-1[8:1],,7,7,5,,,,
{12}8b,7b,6b,1b,2b,3b,
{16}4b/8b,,5,5,7h[8:1],,5,5,6h[8:1],,4,4,6h[8:1],,4,5,3b,,8,7,6,5,8z4[8:2],1,2,3,8,,,,,,43,,,,71,,,,7,7,5,6,2,2,4,3,8<1[4:2],,,,,,,,1s5b[4:1],,,,,,,,,,,,,,,,Ch[8:1],,,,,,,,2,,,,2,,,,
{24}1,8,1,8,1,8,
{16}1h,2h,3h,4h,6bh/5h,,,,7,5,6,5,1,4,5,4,8,5,6,5,8,4,5,4,1,4,5,4,8,5,6,5,1-6b[8:1],4,5,4,1,,,,2,4,3,4,1,5,4,5,8,4,3,4,1,5,4,5,8v5b[8:1]*pp2[8:1],4,3,4,
E
