&title=マージナル
&artist=OSTER project
&first=0.05
&des=soliprum
&clock_count=4
&lv_5=13
&inote_4=(190){4},,,,,,,,
,,,,,,,,
,,,,,,,,
,,,,
{8}18,18,,27,27,,36,36,,45,45,,56,1b,,,
{16}3h[4:1]/5,,,,5,,5,4,5,,4,,3,,2h[8:7],,
{4},,,,
{16}6h[4:1]/4,,,,4,,4,5,4,,5,,6,,7h[8:7],,
{4},,,,
{8}2h[1:1]/8,,8,,7,6,5,,
{8}5h[1:1],,7,,8,1,2,,
{8}3h[1:1],,6,,5,4,2,,
{8}8h[4:1],,7,8/6>8[4:1],,36,,,
{8}7b/4,,1,1,
{8}
8h[4:3]/4b,,6,6,,1,2,
3h[4:3]/7b,,,1,1,,6,36,,
1h[4:3]/5,,3,3,,8,7,
6h[8:3]/2,,3,2,1h[4:1],,6,16,,
{8}
36,4,5,6h[2:1],,,,2,,1,1>7[1:1],,5,,4^7[2:1],4,,2,,3,3,4,4,5,,6,6,,
&inote_5=(190){4},,,,,,,,
,,,,,,,,
,,,,,,,,
,,,,
{8}18,18,,36,36,,27,27,,45,45,,56,1b,,,
{16}3h[4:1]/5,,,,5,,5,4,5,,4,,3,,2h[8:7],,
{8},B4,B3,E3,,B7,B8,,
{16}6h[4:1]/4,,,,4,,4,5,4,,5,,6,,7h[8:7],,
{8}B6,A6,B5,A5,B4,A4,B3,A3,
{8}
2hx[1:1]/8,,8,,7,6,5,,
5hx[1:1],,1,,2,3,4,,
3hx[1:1],,6,,5,4,2,,
8h[4:1],,7,8/6>1[4:1],,36,,,
{8}
8hx[4:3]/4,,6,6,,1,2,
3h[4:3]/7b,,,1,1,,6,36,,
1hx[4:3]/5,,3,3,,8,7,
6h[8:3]/2,,3,2,1h[4:1],,6,16,,
{8}
56,56,,38,38,,47,47,,12,1/2-4[8:1],,2/7-5[8:1],,2/7,,
87,87,,25,25,,16,16,,34,2,1h[4:1],,8,7,6,25,,,,
{8}
2,,3,,4,,5qq2[4:3],,6,,7,,,,,
7,7,6,5,,4pp7[4:3]b,,3,3,,2,,2,,,,,
53,4,3,2h[8:7],,,3,3,3,,
5,6,7h[8:5],,2,2,,3,,1-5pp6[4:3]/1-5qq4[4:3],,,,,,,,,5b,,,,
7/2pp5[4:3]/2pp5[4:3],,5,,6,,7,,6,,5,5,,,,
Ch[2:3]/3bx,,4bx,4bx,,5bx,,6bx,6bx,,5bx,,4bx,,,,,
36,4,5,6h[2:1],,,,2,,1,1>7[1:1],,5,,4^7[2:1]b,4,,2,,3,3,4,4,5,,6,6,,
{8}
27,,3h[4:1],,5,5,4,5/7h[8:3],,,4h[4:1],,5,6,7,,
36,{16}3,4,{8}3,2/5b,,4/7b,,6/1b,,{16}8,1,{8}8,27,
3,4,5^8[4:1],,8-4[4:1],,4^1[4:1],,1-5[4:1],,5^8[4:1],,
4,,3,3,,2h[2:1],,3,4,5,6,7h[2:1],,5,4,3,
,,37,{16}5,6,5,6,5-1[8:1],6,{8}4,5b/3h[8:3],,,8,,
{16}8,1,8,1,8,1,
{8}7h[4:1],,6,5,7/4,,5/2,,3h[4:1]/8,,7h[2:1],,,,
1,,8,8,,2,2,,7,,3,,6,5,4,
{8}
,5/2-5[8:1],5,26,,4/7-4[8:1],4,73,,
6/1-5[8:1],6,17,,3/8-4[8:1],3,82,,
1>7[8:3]/8<2[8:3],18,18,,,,
1x/8x,,18,18,18,,2x/7,2x/7,2x/7,
{8}
2,1,8<2[4:1],,4/8b,,8-2-4-6[4:1],,48,,
8<2[4:1],,48,,8-2-4-6[4:1],,48,,7-3[8:1],,8/7b,,
1h[8:7],3b,,5b,,7b,,8,6h[4:1]/3h[4:1],,,
4,4,5,5h[8:5]/3,,7,7,,8h[4:1],,1h[8:3],,3,3pp8[2:1],,7,,8>6[2:1],,7,,7,7h[8:3],,
8V63[8:3],1,2h[8:3],,,,,
7,8,1>7[4:1],,51,,1-7-5-3[4:1],,51,,
1>7[4:1],,51,,1-7-5-3[4:1],,
51,,2hx[8:5],,1,,7,7h[4:1],,5h[4:1],,3h[4:1],,1,1h[4:1],,{16}8,1,8,1,{8}
2-4[8:1]/7,,12,1-5[8:1],,18,8-6[8:1],,18,1-5[8:1],,12,2-6[8:1],,2b/7-3[8:1],,
7b-5[8:1]/2,,87,8-4[8:1],,81,1-3[8:1],,81,8h[4:1],,
4,35,35,26,{16}7,1,7,1,{8}7,8h[8:5],,,,,,8w4[4:3],17,,,,,,,,,
{8}
36,,36,,4,4,5,6,7h[4:1],,8h[4:1],,1h[4:1],,2h[4:1],,
5h[4:1],,4,45,,36,,3,2h[4:1],,1h[4:1],,8h[4:1],,7h[4:1],,
4h[4:1],,5,6,,1,2,3h[8:3],,5,6,7h[8:3],,3,2,1h[8:11],
B8`A8,,B5`A5,,B2`A2,,B6`A6,,B3`A3,,B8`A8,,
6,5,4,3,7b/2,{16}8,1,{8}8h[8:7],2b,,4b,,6b,,1,
{16}2,7,2,7,3,6,3,6,{8}4,45,,,
53,7,64,2,52,8,74,
6,5,4h[2:1],,1,8,7h[2:1],,4,3,2h[2:1],,7,6,5h[2:1],,,
1,8h[1:1],,4h[4:1],,
{24},5x,6x,7xh[1:1],,,,,,,,,,1x,2x,3xh[2:1],,,,,,,,,,,,
{8}
,,8,,7,,6,,5,,4,,3,3,,,
,,1,,2,,3,,4,,5,5,,6,6-4[8:1],,
46,3-5[8:1],,36,7-5[8:1],,73,2-4[8:1],,27,7-2[8:1],,3-6[8:1]/7,,7-4[8:1]/3,,
37,2-5[8:1],,28,8-4[8:1],,28,1-5[8:1],,18,8,,,,27,7h[2:3],
3,3,2,2,,1,1,8,,6,6,5,
,4,4,3,2x/7,2x/7,2x/7,2x/7,
{8}
7,8,1<3-5-7[2:3],,1b/5h[1:1],,,,,,,,,,,,,,2h[4:1],,8h[8:9],,5,5,,4,,3,,{16}1,8,{8}27,
,{16}4,5,4,5,{8}4,3h[4:3]/6b,,,2,2,,1h[4:1],,8h[8:3],,6,6qq1[2:1],,2,,1<3[2:1],,2,,2,2h[8:3],,
1V36[8:3],8,7h[8:3],,,,,
2,1,8>6[4:1],,48,,8-6-4-2[4:1],,48,,
8>6[4:1],,48,,8-6-4-2[4:1],,48,,
7hx[8:5],,8,,1,1h[4:1],,3h[4:1],,5h[4:1],,7,8h[4:1],,{16}1,8,1,8,{8}
7-3[8:1]/2,,87,8-4[8:1],,81,1-5[8:1],,81,8-4[8:1],,87,7-4[8:1],,7b/2-5[8:1],,
2b-6[8:1]/7,,12,1-5[8:1],,18,8-4[8:1],,18,1h[4:1],,
5,64,64,73,{16}2,8,2,8,{8}2,1h[8:5],,,,,,1w5[4:3],82,,,,,,,,,
{8}
72,,72,,8,8,1,2,3h[4:1],,4h[4:1],,5h[4:1],,6h[4:1],,
1h[4:1],,8,81,,72,,7,6h[4:1],,5h[4:1],,4h[4:1],,3h[4:1],,
7h[4:1],,8,1,,3,4,5h[8:3],,,3,36,,{16}5,4,5,4,{8}5,2h[8:5]/7h[8:5],,,,,,18,
Cf/E8/E1/E2/E6/E5/E4,,,,,
,4,5,6,2b/7,{16}1,8,{8}1h[8:7],7b,,5b,,3b,,8,
{16}7,2,7,2,6,3,6,3,{8}5,
4h[8:3],,,8<5[4:1],,5>2[4:1]/5>2[4:1],,2<7[4:1]b,,5,4,3,2h[4:1],,7,2/7-4[8:1],,
2x/7,2x-5[8:1],,2/8x,8x-3[8:1],,1x/8,1x-6[8:1],,1/7x,7x,,
3/6x,4x>5[2:7]/5<4[2:7],,4b/5b,
{1}
,,,,E
