&title=1番輝く星
&artist=上坂すみれ
&first=-0.73
&des=reflectW
&lv_5=12+
&inote_5=(182)
{1},
{16}1,2,3,4,5,6,7,8,1h[4:1]/5,,,,5,,2,,
{8}6,3,7,4h[4:1],,8,3,7,
{8}2q3[4:1]/6,,,,6,6,3,5,
{8}4,6,5,7p6[4:1]/4,,,3,,
{12}3,4,5,6,,,2h[4:1],,,5h[4:1],,,
{8}3h[4:1],,6h[4:1],,4h[4:1],,7h[4:1],,
{8}5-1[8:1],,,8,,1,8,2,
{8}7,3,6,45,,4b/5b,4h[2:1]/5h[32:16],,
{4},,3h[2:1],5,
{4}6h[2:1],4,3h[2:1],5,
{4}6,12,6h[2:1],4,
{4}3h[2:1],5,6h[2:1],4,
{8}3,,87,,5h[2:1],,2,,
{4}4h[2:1],7,5h[2:1],2,
{4}4,38,6h[4:1],5h[4:1],
{4}4h[4:1],3,8-5[8:1]/1v4[8:1],,
{8}3b/6b,3b/6b,,2-4[8:1],,5,5-7[8:1],,
{8}4V28[4:1],,8>4[4:1],,7,,6,,
{8}5-2[8:1],6-1[8:1],5,6,,4,4-2[8:1],,
{8}5V71[4:1],,1<5[4:1],,2,,3,,
{8}4-7[8:1],3-8[8:1],4,3,,,1p3[4:1],,
3p5[4:1],,5p7[4:1],,7p1[4:1],,1,,
8,2,1pp3[6:1]*qq7[6:1],,1,,,46,
2,35,7,28,,36,36,,
{12}3,4,3,6,5,6,2,,,16,,{24}7,8,
{12}7h[12:3],,,8q5[4:1],7,1,8,,,,3,4,
3,6,5,6,2,3,2,,,84,,6,
7/5h[12:3],,,6q4[4:1],5,7,6,,,,6,5,
6,3,4,3,,18,27,,,83,,{24}2,1,
{12}2h[12:3],,,1p4[4:1],2,8,1,,,,6,5,
6,3,4,3,7,6,7,,,15,,3,
2/4h[12:3],,,3p5[4:1],4,2,3,,,1h[64:1],,,
3h[64:1]/6h[64:1],,5h[64:1],4h[64:1],,,1,,,1-4[8:1],,,
{8}6,,6-1[8:1],,3,,3-6[8:1],,
{8}8,,8-3[8:1],,5,,5-8[8:1],,
{8}2,,2-5[8:1],,7,,7-2[8:1],,
{8}4,,4-7[8:1],,1,,3,34,
{8}6,56,3,42,6,75,43,25,
{16}65,,74,,18,,4,5,4h[8:4],,5,,6,,7,,
{8}8h[8:3],3,2,1b,,3b/7b,1bs5[8:1]/8bz4[8:1],,
{8}18,,2-5[8:1],,2/6-2[8:1],,3-6[8:1]/6,,
{8}8-5[8:1]/3,,4-7[8:1],3-8[8:1],,3b,,,
{8}81,,7-4[8:1],,7/3-7[8:1],,6-3[8:1]/3,,
{8}1-4[8:1]/6,,5-2[8:1],6-1[8:1],,6b,,,
{8}27,,1-4[8:1],,1/6-1[8:1],,3-6[8:1]/6,,
{8}8-3[8:1]/3,,4-1[8:1],2-5[8:1],,2b,,,
{8}2h[4:1]/7h[4:1],,,,8^5[8:1],,3p5[4:1],3,
{8},,4h[8:3],6-2[8:1],,6,4,,
{8}72,,8-5[8:1],,8/3-8[8:1],,6-3[8:1]/3,,
{8}1-6[8:1]/6,,5-8[8:1],7-4[8:1],,7b,,,
{8}1V35[4:1],,5V71[4:1],,1>5[4:1],,5<1[4:1],,
{8}1,,6,6h[8:3],,,4qq7[2:1],,
{8}8h[2:1],,,,,,,{16}3,2,
{8}7bV15[2:1]/1bV37[2:1],,,,,,,,
{8}25,,3,,6,,4,3h[8:3]/5,
{8},,4,3,5,4,6,5,
7>6[2:1],,,,,,3,,
5,,3,4,,6,5,,
{16}1,2,3,4,5,6,7,8,1h[4:1]/5-1[8:1],,,,5,,,,
2-4[8:1]/8,,2,,6-8[8:1],,6,,,,3,,4z8[8:1]/5-8[8:1],,,,
45,,,,1,,,,5-7[8:1],,6,,1-3[8:1],,2,,
6-8[8:1],,7,,2-4[8:1],,3,,7-2[8:1]*-4[8:1],,,,7,,,,
1/6h[4:1],2,3,4,5,,4b/7bp4[8:3],,,,,,2,,,,
1^4[8:1],,8V62[8:3],,1,,8,,,,,,3,,,,
2,,,,1,8,1,8,1,2,3,4,5,6,7,,
,,1p5[8:1]/1-4[8:1],,28,,1b,,,,,,,,,,
