&title=我们
&artist=DJ小女孩
&first=0.992
&des=ひゃおちゃ
&lv_5=13
&inote_5=(120){16}1h[4:1],,,,7,,,,2,6,3,5,4b,,,,
1-5[8:1],,6-8[8:1],,1-3[8:1],,6-4[8:1],,1-7[8:1],,6-2[8:1],,1,,6,,
1-5b[8:1]*-5-7[4:1],,,,7-3[8:1]b,,,,,,,,,,,,
8-4[8:1],,3-1[8:1],,8-6[8:1],,3-5[8:1],,8-2[8:1],,3-7[8:1],,8,,3,,
8v5[2:1]b,,,,8v3[4:1],,,,,,,,,,,,
2-8[8:1],,6-4[8:1],,2-4[8:1],,6-8[8:1],,2-6[8:1],,6-2[8:1],,2,,,,
8<4[4:1],,,,4pp6[8:1],,,,,,,,1-5[8:1],,5-3-6-2-7[2:1],,,,,,,,,,,,,,
8-4[8:1],,4pp4qq4[8:5],,,,,,,,,,,,,,,,,,
{8}3h[8:3],4,5,6,6h[8:3],5,3,5,5h[8:2],4,3,,4h[8:2],3,2,,
6h[8:3],5,4,3,3h[8:3],4,6,4,4h[8:2],5,6,,5h[8:2],6,7,,
3h[8:3],6,5,4,4h[8:3],5,6,5,5h[8:2],6,6,,6h[4:1],5,5,,
7h[8:3],4,5,6,5h[8:3],4,3,4,4h[8:2],3,3,,3h[4:1]/4h[4:1],,,,
7-3[8:1]/1,3-7[8:1]/5,7/1,2,4-2[8:1],2-6[8:1]/6,8/4,7,
8-4[8:1],7,6-2[8:1],5,4-8[8:1],3,2b,,
2-6[8:1]/8,6-2[8:1]/4,2/8,7,5-7[8:1],7-3[8:1]/3,1/5,2,
1-5[8:1],2,3-7[8:1],4,5-1[8:1],6,7b,,
7-2[8:1]/4,2-5[8:1]/5,7/4,3,1-4[8:1],2/5-8[8:1],1/6,5,
3-8[8:1],4,3/6-1[8:1],5,6/1-4[8:1],2,3b,,
2-7[8:1]/5,7-4[8:1]/4,2/5,6,8-5[8:1],7/4-1[8:1],8/3,4,
6-1[8:1],5,6/3-8[8:1],4,3/7w3[8:1],,7b,,
{16}1-5[8:1]/5,,2,2,1/6,,7,,8-3[8:1]/4,,7/2,,6/8,,5,,
2/4-7[8:1],,3,3,4/5-2[8:1],,6,,8-5[8:1],,7,,8/1b,,,,
8-4[8:1]/4,,7,7,8/3,,2,,1-6[8:1]/5,,2/7,,3/1,,4,,
7/5-2[8:1],,6,6,5/4-7[8:1],,3,,1-4[8:1],,2,,1/8b,,,,
2-7[8:1]/6,,1,1,2/5-8[8:1],,6,,5/1-4[8:1],,2,,6-3[8:1]/1,,7,,
6/1-5[8:1],,1,,2-6[8:1],,2,,3-7[8:1],,3,,4b,,,,
6-1[8:1]/2,,5,5,6/3-8[8:1],,2,,3/7-4[8:1],,6,,2-5[8:1]/7,,1,,
2/7-3[8:1],,7,,6-2[8:1],,6,,5-1[8:1],,5,,4b,,,,
{8}3h[8:1],4,3h[8:1]/5,6,7h[8:1],5,7h[8:1]/4,3,
2-4-8[4:1],,8-6[8:1],,7h[4:1],,,,
7h[8:1]/5,6,7h[8:1]/1,2,3h[8:1]/8,7,3h[8:1]/6,5,
4pp7[8:5],,4qq1[8:3],,4,,,,
1h[8:1]/7,6,1h[8:1]/5,4,4h[8:1]/2,2,4h[8:1]/3,3,
4q6^8[2:1],,,,,,3,4h[8:13],
,,,,,,7,6h[8:5],,,,,,,,,
5h[32:1],2,5h[32:1],1,5h[32:1],2,5h[32:1],3,
5h[32:1],4,5h[32:1],4,5h[32:1],4,5h[32:1],,
3h[32:1],6,3h[32:1],6,3h[32:1],5,3h[32:1],5,
3h[32:1],7,3h[32:1],8,3h[32:1],7,3h[32:1],,
7h[32:1],2,7h[32:1],1,7h[32:1],2,7h[32:1],3,
7h[32:1],4,7h[32:1],1,7h[32:1],4,7h[32:1],,
4,5,3,6,2,7,1,8,1h[8:1],2h[8:1],3h[8:1],4h[8:1],
5,,5-3^2v8^7-5[4:19]b,,,,,,,,,,,,,,,,,,,,,,,,,,,,,,,,,,,,,,,,,,
{16}3,7,4,6,2-6[8:1],7,4-8[8:1],5,2b,,4b,,{32}2b,3,4,,8b,7,6,,
{16}3,3,7,7,1-3[8:1],1,5-7[8:1],5,1b-5[8:1],,5b,,1b,,,,
{16}6,2,5,3,7-3[8:1],2,5-1[8:1],4,7b,,5b,,{32}7b,6,5,,1b,2,3,,
{16}6,6,6,6,1-3[8:1],1,1-7[8:1],1,1-5[8:1],,,,Cf,,,,
{16}8,2,6,4,1-5[8:1],2,5-1[8:1],4,1-3[8:1],,3-1[8:1],,,,,,
3,3,1,1,2-6[8:1],2,8-4[8:1],8,2b-8[8:1],,8b,,2b,,,,
{16}1,7,3,5,8-4[8:1],7,4-8[8:1],5,8-6[8:1],,6-8[8:1],,,,,,
6,6,6,6,3,3,3,3,D7/A7f/D8/B8,,B1/D2/A2f/D3,,{32}B6/B3,B5/B4,E5,,{16},,
{24}5h[8:1],,,2b,3,4,6h[8:1],,,1b,2,3,5h[8:1],,,2b,3,4,6h[8:1],,,1b,2,3,
{24}5h[8:1],,,2b,3,4,8h[8:1],,,3b,2,1,6h[8:1],,,3b,4,5,7h[8:1],,,5h[8:1],,,
{16}8h[8:1],,,,3,3,5,5,2h[16:3],,,4h[16:3],,,6h[8:1],,
{24}8h[8:1],,,1,2,3,7h[8:1],,,5,4,3,{16}5-1[8:1],,1-5[8:1],,,,,,
{24}3h[8:1],,,7b,6,5,2h[8:1],,,6b,7,8,3h[8:1],,,7b,6,5,2h[8:1],,,6b,7,8,
{24}4h[8:1],,,7b,6,5,1h[8:1],,,6b,7,8,3h[8:1],,,6b,5,4,2h[8:1],,,4h[8:1],,,
{16}1h[8:1],,,,6,6,4,4,7h[16:3],,,5h[16:3],,,3h[8:1],,
{24}1h[8:1],,,,,,3h[8:1]/5-1-3[4:1],,,,,,{16}3-7[8:1]b,,,,,,,,
2-6[8:1],,8,8,2,,7,,1-5[8:1],,7,7,1,,6,,
8-4[8:1],,6,6,8,,5,,3h[4:1],,{32},7,6,5,{16}4,,3,,
2h[8:1],,4,,1h[8:1],7,7,7,4h[8:1],,6,,2h[8:1],8,8,8,
2-6[8:1],,8,,2-4-8[4:1],,7,,2,,5,,6b,,,,
7-3[8:1],,1,1,7,,2,,8-4[8:1],,2,2,8,,3,,
1-5[8:1],,3,3,1,,4,,6h[4:1],,{32},2,3,4,{16}5,,6,,
7h[8:1],,5,,8h[8:1],2,2,2,5h[8:1],,3,,7h[8:1],1,1,1,
6h[8:1]b,,,,1b/3h[8:1],,,,7h[8:1]/5b,,,,2h[8:1]/4b-8[8:1],,,,
