&title=Re:何度目かのはじめまして
&artist=『何度目かのはじめまして』オープニング
&first=0.02
&des=泣きゲーのヒロインとは思えない身体つきですねぇ
&lv_5=13
&inote_5=(167){1},,
{8}8z4[8:11],,,,
,,,,
{8}8-5[8:3],,,,
,,,,
{8}2-6^7-1[8:18],,,,
,,,,
{8}2-6^5-3[8:10],,,,
,,,,
{8},,,,
,,,,
{8}4,,3^6[4:1],,
6^1[4:1],,1,,
{8}5,,6^3[4:1],,
3^8[4:1],,8,,
{8}4,4>7[8:3],,5h[8:4],
,,,,
{8}2,1-5[8:1],,1w5[8:1],
,,,,
{8}6,,57,8-4[8:1],
,3,,1,
{8}34,2,1h[8:2],,
{16}8,7,6,5,
{24}1x,2x,3x,
4x,5x,6x,
{8}8-4[8:1],,2,2-6[8:1],
,7,,1,
{16}2,,6,5,
7,,3,4,
2,,6,5,
8,,1,,
{8}1^4[8:1],,7,,
6^1[8:1],,4,,
{8}2-5[8:1],,25,8-4[8:1],
,8/1v6[8:1],,,
{8}7hb[4:16],,,,
,,,,
{8}2,,,,
,,,,
{8}1,,,,
,,,,
{8}3,,,,
{24}B3,B4,,{8},,,
{8}3bxh[4:15],,,,
,,,,
{24}B6,B5,,{8},E5,B3,
E1,B7,B4,,
{24}B8,B7,,{8},,,
B5,,B3,,
{24}B1,B2,,{8},,,
5b,,,,
{16}1,,3,4,
3,,2,,
,,1,,
6,5,6,,
{16}1,,3,4,
3,,2,,
,,1,,
7,8,7,,
{16}8,,6,5,
6,,7,,
,,8,,
3,4,3,,
{16}8,,6,5,
6,,7,,
,,8,,
2,1,2,,
{16}1,,3,4,
3,,1,,
6,5,6,,
3,4,3,,
{16}8,,6,5,
6,,8,,
3,4,3,,
6,5,6,,
{8}1-5[8:1],,1,7^4[8:1],
,7,1h[8:4],,
{16},,,,
5,,2,2,
4,,6,6,
4,,,,
{4}1h[32:1],2h[32:1],3h[32:1],4h[32:1],
3h[32:1],2h[32:1],1h[32:1],8h[32:1],
{4}7h[32:1],6h[32:1],5h[32:1],4h[32:1],
Ch[4:2]/3h[32:1],2h[32:1],1h[32:1],Ch[4:2]/8h[32:1],
{4}7h[32:1],6h[32:1],{8}1-5[8:1]/5,,
15,7-3[8:1],,37,1v3V57[8:6],,
{8},5,,,
8,,1,,
{16}78,,,,
12,,3,4,
2,,1,,
82,,7,,
{16},,6,5,
7,,8,,
18,,1-5[8:1]/8,,
18,,18,,
{8},E5,E4,B6,
E1,E2,B7,C,
{8},,,,
{8}2-5[8:1],1,2,7-4[8:1],
,7,3,2,
{8}8,1-4[8:1],,1-5[8:1],
,1>8[4:5],,2h[4:2],
{8},,,,
1h[8:3],,,,
{8}4h[8:3],,,,
6h[8:3],,5,,
{8}4-8[8:1],3,2,,
,8-4[8:1],1,8,
{8}1,2-5[8:1],,2-6[8:1],
,2<5[8:3],,8,
{8},4<2[8:3],4h[4:2],,
,,,,
{8}24,,57,,
{16}3,4,1,,
6,5,8,,
{8}1<6[4:1],,6^3[4:1],,
3p6[4:1],,E5,,
{8}8x^3^6q3[4:3],,E5,,
E1,,E5,,
{8}1,,2,2-5[8:1],
,7,7-4[8:1],,
{8}3,1,7,5v4[8:1],
,8,8,,
{8}1,2,36,6^3[8:1]/3,
2,,1,2,
{8}8,7,2,1,
8w4[8:1],,,{16},,
{16}7,7,5,,
3,3,5,,
4,5,4,5,
1,8,3,6,
{8}1pp4[8:5],,,,
8^5[8:1],,,,
{16}1,,3,4,
3,,2,,
16,,2,,
38,,7,,
{8}16,34,38,56,
45,27,{16},,4,5,
{8}4^1[4:1],,1^6[4:1],,
6p1[4:1],,1,,
{8}5^8[4:1],,8^3[4:1],,
3q8[4:1],,8,,
{8}1,1>6[8:3],,8h[8:4],
,,,,
{8}2,1^4[8:1]*^6[8:1],,1w5[8:1],
,,,,
{8}6^3[8:1],,3,1v4[8:1],
,5,,3,
{8}65,7,8h[8:2],,
{16}1,2,3,4,
{24}8,7,6,
5,4,3,
{8}1-5[8:1],,7,7^4[8:1],
,3,,2,
{16}8,,3,5,
1,,6,4,
8,,2,4,
8,,1,,
{8}8^3[8:1],7,6,5^8[8:1],
4,3,2^5[8:1],,
{8}8-4[8:1],,84,2-6[8:1],
,2/6,,,
{16}7x,6x,5x,4x,
1x,2x,3x,4x,
{16}6x,7x,8x,1x,
5x,4x,3x,2x,
{16}8x,7x,6x,5x,
84,,84,,
{8},6v8b[8:1]/2v4b[8:1],6b/2b,B1/B5/Cf,,
,,,,
{8},,,,
,,,,
{8},,,,
,,,,
