&title=LiFE
&artist=Osanzi
&first=0.02
&des=mmfc
&lv_5=13
&inote_5=(128)
{1},
{16}E8f/B8/1b,,,,E6/B5/3,,3h[4:1],,E8/B8,,,,E6/B5/E3h[4:1],,,,
{16}E8/B8,,,,E6/B5,,2x,,E8/B8,2x,,,E6/B5/1x-4[8:1],,,,
{16}E8f/B8/1b,,,,E6/B5/3,,3h[8:5],,E8/B8,,,,E6/B5,,,,
{16}E8/B8,,,,E6/B5,,2x,,E8/B8,3x<6[12:1],,,E6/B5,,,,
{16}E2f/B1/8b,,,,E4/B4/6,,6h[4:1],,E2/B1,,,,E4/B4/E7h[4:1],,,,
{16}E2/B1,,,,E4/B4,,7x,,E2/B1,7x,,,E4/B4/8x-5[8:1],,,,
{16}E2f/B1/8b,,,,E4/B4/6,,6h[8:5],,E2/B1,,,,E4/B4,,,,
{16}E2/B1,,,,E4/B4,,7x,,E2/B1,6x,,,E4/B4/5x,,,,
{16}8x-5[8:1]/3xh[4:1],,,,8,,3,,4<7[8:1]/1h[4:1],,,,4,,1,,
{16}8-3[8:1]/4h[4:1],,,,8,,4,,2<7[8:1]/5bh[4:1],,,,2,,5,,
{16}8-5[8:1]/3h[4:1],,,,8,,3,,4x<7[12:1]/1,,,4x>1[12:1],,,4x,,
{16}8-4[8:1],,,,8,,1,,3x-8[8:1]*-7[8:1]/2x,,,,A3f,,,,
{16}1-4[8:1]/6h[4:1],,,,1,,6,,5>2[8:1]/8h[4:1],,,,5,,8,,
{16}1-6[8:1]/5h[4:1],,,,1,,5,,7>2[8:1]/4bh[4:1],,,,7,,4,,
{16}1-4[8:1]/6h[4:1],,,,1,,6,,5x>2[12:1]/8,,,5x<8[12:1],,,5x,,
{16}1-5[8:1],,,,1,,8,,6x-1[8:1]*-2[8:1]/7x,,,,A6f,,,,
{1}1x-7-2-6-3-5s1[4:6]/3x,
{1}A3h[4:3]/A2h[4:3]/D3h[4:3],5-3-6-2-7-1s5b[2:3],
{4}A6h[4:3]/A7hf[4:3]/D7h[4:3],,,,
{16}3xh[16:3],,,5h[16:3],,,4h[16:3],,,6h[16:3],,,5h[4:1],,,,
{16}7h[16:3],,,4h[16:3],,,5h[16:3],,,3h[16:3],,,4,,4,,
{16}2h[16:3],,,3h[16:3],,,1h[16:3],,,8h[16:3],,,5h[4:1],,,,
{16}6h[16:3],,,2h[16:3],,,8h[16:3],,,3h[16:3],,,1,,1,,
{16}3x-1[12:1],,,7-5[12:1],,,8-4[8:1],,,,,,6h[4:1],,,,
{16}5>3[12:1],,,7>1[12:1],,,2q6[8:1],,,,,,8,,8,,
{16}3-5[12:1],,,8-6[12:1],,,3-7[8:1],,,,,,6h[4:1],,,,
{16}1>3[12:1],,,7<5[12:1],,,1q5[8:1],,,,,,6,,6,,
{16}7b/8b,,6,,4/5,,3,,1/2,,7,8,7,8,7,,
{16}5/6,,7,,1/8,,2,,3/4,,5,4,6,,6,5,
{16}7,,5/6,,8,,4/5,,1,,3,4,2,4,3,,
{16}1,,3/4,,8,,4/5,,7,,6,5,7,5,6,,
{8}4x/7x,4,1/4,4,4/8,4,4/6,4,
{8}3x/5x,5,1/5,5,5/7,5,2/5,5,
{16}3x,4,2,5,1,6,8,7,5,6,4,7,3,8,2,1,
{16}A4,A5,A3,A6,A2,A7,A1,A8,{32}2x,3x,4x,5x,6x,7x,8x,1x,Cf,,,,,,,,
{16}3/8,,
{24}2,1,3,
{16}8,,6/5,,{24}4xbw8[8:1],3xb,2xb,1xb,,,4x,,,,,,
{8}1xbs5b[8:1]/7xb-4b[8:1],1h[16:1]/7h[16:1],,,1s5b[8:1]/2-6b[8:1],2h[16:1]/1h[16:1],,,
{8}1s5b[8:1]/7V13b[8:1],1h[16:1]/7h[16:1],,,A6h[8:1]/E7h[8:1]/E6h[8:1],A3h[8:1]/E4h[8:1]/E3h[8:1],E1f/B1/B8,,
{16}2bx/6bx,,,,5,3,6,4,7h[8:1],,1,8h[8:1],,2,1,,
{16}7bx/3bx,,,,4,6,3,5,2h[8:1],,8,1h[8:1],,7,8,,
{16}7xb/1xbs5b[8:1],,6,6,1x,,,,1s5b[8:1]/4,,3,3,1x,,,,
{16}1s5b[8:1]/5x,6x,7x,,1x,,8,8,4q8[8:1]*p8[8:1],,35,,Cf,,,,
{16}6b/2b,,,,4,6,8,7,1h[8:1],,6,3h[8:1],,1,5,,
{16}3b/7b,,,,5,3,1,2,8h[8:1],,3,6h[8:1],,8,4,,
{8}A1/E2f/A2/B1/B2,A7/E7f/A6/B6/B7,A4/E4f/A3/B3/B4,1xv2-4b[16:3],5xv6-8[16:3],,,,
{16}5,,1,,3/8,,7,2,6,1,5,8,4>8b[8:1]*p7b[8:1],,,,
{16}4b,,,,6xh[8:1],,1xh[8:1],,
{64}A7,D8,A8,D1,,D2,A2,D3,
{16}A3,5x,4b/6xb,,,,
{16}1x/4,2x,3x,1/4x,,,7/5h[2:1],,8,,2,,6,,4>1b[8:1],,
{8}5b,
{48}E4,E3,E2,,,,
{16}5,,4>1b[8:1],,5b/6,,
{48}E4,E3,E2,,,,
{16}5,5,4>1b[8:1],6,
{16}5b,,
{48}E4,E3,E2,,,,
{16}5,,4,4,6,6,2,2,8b<4b[8:1]*p3b[8:1],,,,
{16}8b,,,,3xh[8:1],,8xh[8:1],,
{64}A2,D2,A1,D1,,D8,A7,D7,
{16}A6,4x,3xb/5b,,,,
{16}5/8x,7x,6x,5x/8,,,3/1h[2:1],,4,,6,,2,,8,,
{16}3xbqq8[2:1]/7xbqq4[2:1],,,,,,,,,,,,,,,,
{16}3/7x<2b[4:1],,,,,,,,1b-4b[8:1],,8-5[8:1],,,,,,
{16}2xhb[8:1],,4,3,5,,5,4,6,5,,5,7h[8:1],,5,,
{16}5/8,,5,6,4,,4,5,3-8[8:1],4,2x,2x,A3f,,,,
{16}7xhb[8:1],,5,6,4,,4,5,3,4,2h[8:1],,4,,1/4,,
{16}4,,4,2,5,,5,4,6b-1b[8:1],,8-4[8:1],,,,,,
{16}2xhb[8:1],,4,3,5,,5,4,6,5,,5,7h[8:1],,5,,
{16}5/8,,5,6,4,,4,5,3-8[8:1]*-7[8:1],4,2x,2x,A3f/D3/D4,,,,
{16}1x-4[8:1]/6xh[4:1],,,,1,,6,,5>2[8:1]/8h[4:1],,,,5,,8,,
{16}1-6[8:1]/5h[4:1],,,,1,,5,,7>2[8:1]/4h[4:1],,,,7,,4,,
{16}1-4[8:1]/6h[4:1],,,,1,,6,,5x>2[12:1]/8,,,5x<8[12:1],,,5x,,
{16}1-5[8:1],,,,1,,8,,6x/7x,,,2x/3x,,,4x/5x,,
{16}8-5[8:1]/3h[4:1],,,,8,,3,,4<7[8:1]/1h[4:1],,,,4,,1,,
{16}8-3[8:1]/4h[4:1],,,,8,,4,,2<7[8:1]/5h[4:1],,,,2,,5,,
{16}B5h[4:1]/E5h[4:1]/8xh[4:1],,,,,,8,,B2h[4:1]/E3h[4:1]/6x,,,6,,,6,,
{16}B6h[4:1]/E7h[4:1]/1xh[4:1],,,,,,1,,Chf[2:1]/2x,,,2,,,2,,
{1}E1/B8/B1,
{1},
E
&inote_6=(128)
{1},
{16}E8f/B8/1b,,,,E6/B5/3,,3h[4:1],,E8/B8,,,,E6/B5/E3h[4:1],,,,
{16}E8/B8,,,,E6/B5,,2x,,E8/B8,2x,,,E6/B5/1x-4[8:1],,,,
{16}E8f/B8/1b,,,,E6/B5/3,,3h[8:5],,E8/B8,,,,E6/B5,,,,
{16}E8/B8,,,,E6/B5,,2x,,E8/B8,3x<6[12:1],,,E6/B5,,,,
{16}E2f/B1/8b,,,,E4/B4/6,,6h[4:1],,E2/B1,,,,E4/B4/E7h[4:1],,,,
{16}E2/B1,,,,E4/B4,,7x,,E2/B1,7x,,,E4/B4/8x-5[8:1],,,,
{16}E2f/B1/8b,,,,E4/B4/6,,6h[8:5],,E2/B1,,,,E4/B4,,,,
{16}E2/B1,,,,E4/B4,,7x,,E2/B1,6x,,,E4/B4/5x,,,,
{16}8x-5[8:1]/3xh[4:1],,,,8,,3,,4^7[8:1]/1h[4:1],,,,4,,1,,
{16}8-3[8:1]/4h[4:1],,,,8,,4,,2^7[8:1]/5bh[4:1],,,,2,,5,,
{16}8-5[8:1]/3h[4:1],,,,8,,3,,4x^7[12:1]/1,,,4x^1[12:1],,,4x,,
{16}8-4[8:1],,,,8,,1,,3x-8[8:1]*-7[8:1]/2x,,,,A3f,,,,
{16}1-4[8:1]/6h[4:1],,,,1,,6,,5^2[8:1]/8h[4:1],,,,5,,8,,
{16}1-6[8:1]/5h[4:1],,,,1,,5,,7^2[8:1]/4bh[4:1],,,,7,,4,,
{16}1-4[8:1]/6h[4:1],,,,1,,6,,5x^2[12:1]/8,,,5x^8[12:1],,,5x,,
{16}1-5[8:1],,,,1,,8,,6x-1[8:1]*-2[8:1]/7x,,,,A6f,,,,
{1}1x-7-2-6-3-5s1[4:6],
{1}A3h[4:3]/A2h[4:3]/D3h[4:3],5-3-6-2-7-1s5b[2:3],
{4}A6h[4:3]/A7hf[4:3]/D7h[4:3],,,,
{16}3xh[16:3],,,5h[16:3],,,4h[16:3],,,6h[16:3],,,5h[4:1],,,,
{16}7h[16:3],,,4h[16:3],,,5h[16:3],,,3h[16:3],,,4,,4,,
{16}2h[16:3],,,3h[16:3],,,1h[16:3],,,8h[16:3],,,5h[4:1],,,,
{16}6h[16:3],,,2h[16:3],,,8h[16:3],,,3h[16:3],,,1,,1,,
{16}3x-1[12:1],,,7-5[12:1],,,8-4[8:1],,,,,,6h[4:1],,,,
{16}5>3[12:1],,,7>1[12:1],,,2q6[8:1],,,,,,8,,8,,
{16}3-5[12:1],,,8-6[12:1],,,3-7[8:1],,,,,,6h[4:1],,,,
{16}1>3[12:1],,,7<5[12:1],,,1q5[8:1],,,,,,6,,6,,
{16}7b/8b,,6,,4/5,,3,,1/2,,7,8,7,8,7,,
{16}5/6,,7,,1/8,,2,,3/4,,5,4,6,,6,5,
{16}7,,5/6,,8,,4/5,,1,,3,4,2,4,3,,
{16}1,,3/4,,8,,4/5,,7,,6,5,7,5,6,,
{8}4x/7x,4,1/4,4,4/8,4,4/6,4,
{8}3x/5x,5,1/5,5,5/7,5,2/5,5,
{16}3x,4,2,5,1,6,8,7,5,6,4,7,3,8,2,1,
{16}A4,A5,A3,A6,A2,A7,A1,A8,{32}2x,3x,4x,5x,6x,7x,8x,1x,Cf,,,,,,,,
{16}3/8,,
{24}2,1,3,
{16}8,,6/5,,{24}4xbw8[8:1],3xb,2xb,1xb,,,4x,,,,,,
{8}1xbs5b[8:1]/7xb-4b[8:1],1h[16:1]/7h[16:1],,,1s5b[8:1]/2-6b[8:1],2h[16:1]/1h[16:1],,,
{8}1s5b[8:1]/7V13b[8:1],1h[16:1]/7h[16:1],,,A6h[8:1]/E7h[8:1]/E6h[8:1],A3h[8:1]/E4h[8:1]/E3h[8:1],E1f/B1/B8,,
{16}2bx/6bx,,,,5,3,6,4,7h[8:1],,1,8h[8:1],,2,1,,
{16}7bx/3bx,,,,4,6,3,5,2h[8:1],,8,1h[8:1],,7,8,,
{16}7xb/1xbs5b[8:1],,6,6,1x,,,,1s5b[8:1]/4,,3,3,1x,,,,
{16}1s5b[8:1]/5x,6x,7x,,1x,,8,8,4q8[8:1]*p8[8:1],,35,,Cf,,,,
{16}6b/2b,,,,4,6,8,7,1h[8:1],,6,3h[8:1],,1,5,,
{16}3b/7b,,,,5,3,1,2,8h[8:1],,3,6h[8:1],,8,4,,
{8}A1/D2f,A7f/B7,E5/A4f,1xv2-4b[16:3],5xv6-8[16:3],,,,
{16}5,,1,,3/8,,7,2,6,1,5,8,4>8b[8:1]*p7b[8:1],,,,
{16}4b,,,,6xh[8:1],,1xh[8:1],,
{64}A7,D8,A8,D1,,D2,A2,D3,
{16}A3,5x,4b/6xb,,,,
{16}1x/4,2x,3x,1/4x,,,7/5h[2:1],,8,,2,,6,,4>1b[8:1],,
{8}5b,
{48}E4,E3,E2,,,,
{16}5,,4>1b[8:1],,5b/6,,
{48}E4,E3,E2,,,,
{16}5,5,4>1b[8:1],6,
{16}5b,,
{48}E4,E3,E2,,,,
{16}5,,4,4,6,6,2,2,8b<4b[8:1]*p3b[8:1],,,,
{16}8b,,,,3xh[8:1],,8xh[8:1],,
{64}A2,D2,A1,D1,,D8,A7,D7,
{16}A6,4x,3xb/5b,,,,
{16}5/8x,7x,6x,5x/8,,,3/1h[2:1],,4,,6,,2,,8,,
{16}3xbqq8[2:1]/7xbqq4[2:1],,,,,,,,,,,,,,,,
{16}3/7x<2b[4:1],,,,,,,,1b-4b[8:1],,8-5[8:1],,,,,,
{16}2xhb[8:1],,4,3,5,,5,4,6,5,,5,7h[8:1],,5,,
{16}5/8,,5,6,4,,4,5,3-8[8:1],4,2x,2x,A3f,,,,
{16}7xhb[8:1],,5,6,4,,4,5,3,4,2h[8:1],,4,,1/4,,
{16}4,,4,2,5,,5,4,6b-1b[8:1],,8-4[8:1],,,,,,
{16}2xhb[8:1],,4,3,5,,5,4,6,5,,5,7h[8:1],,5,,
{16}5/8,,5,6,4,,4,5,3-8[8:1]*-7[8:1],4,2x,2x,A3f/D3/D4,,,,
{16}1x-4[8:1]/6xh[4:1],,,,1,,6,,5^2[8:1]/8h[4:1],,,,5,,8,,
{16}1-6[8:1]/5h[4:1],,,,1,,5,,7^2[8:1]/4h[4:1],,,,7,,4,,
{16}1-4[8:1]/6h[4:1],,,,1,,6,,5x^2[12:1]/8,,,5x^8[12:1],,,5x,,
{16}1-5[8:1],,,,1,,8,,6x/7x,,,2x/3x,,,4x/5x,,
{16}8-5[8:1]/3h[4:1],,,,8,,3,,4^7[8:1]/1h[4:1],,,,4,,1,,
{16}8-3[8:1]/4h[4:1],,,,8,,4,,2^7[8:1]/5h[4:1],,,,2,,5,,
{16}B5h[4:1]/E5h[4:1]/8xh[4:1],,,,,,8,,B2h[4:1]/E3h[4:1]/6x,,,6,,,6,,
{16}B6h[4:1]/E7h[4:1]/1xh[4:1],,,,,,1,,Chf[2:1]/2x,,,2,,,2,,
{1}E1/B8/B1,
{1},
E
