&title=LORELEI
&artist=Camellia
&first=-1.173
&des=TragiC
&lv_5=14+
&des_5=TragiC
&inote_5=
(215){4},{1},{4},{32}6h[1:1]/A4,
E4,{16}E3,{1},{4},,,{16},,{32}2h[1:1]/E5,
E6,{16}A6,{1},{4},,,{16},,{32}8h[1:1]/E5,
E4,{16}A3,{1},{4},,,{16},,{32}3h[1:1]/A5,
E6,{16}E7,{1},{4},,,{8},{2}6h[2:1]/5h[3:1],
{6},,4h[2:1],5h[2:1],,,,3h[6:1],
4h[2:1],2h[2:1],,,,4,
4,3h[6:1],5h[6:1],4h[6:1],
{3}6,{12}6,5,{2}7h[2:1]/4h[3:1],
{6},,5h[2:1],6h[2:1],,,,,4h[2:1],
5h[2:1],,,,3,
3,6h[6:1],4h[6:1],7h[6:1],
{2}3,2h[3:1]/8h[2:1],
{6},,3h[2:1],5h[2:1],,,,4h[6:1],
6h[2:1],5h[2:1],,,,7,
7,5h[6:1],6h[6:1],4h[6:1],
{3}5,{12}3,4,{2}2h[2:1]/5h[3:1],
{6},,6h[2:1],4h[2:1],,,,,7h[2:1],
5h[2:1],,,,6,
6,5h[6:1],7h[6:1],4h[6:1],
{2}8,{4}1/7-5[8:1],7/1-3[8:1],
1/7-5[8:1],7/1-3[8:1],1/7-5[8:1],7/1-3[8:1],
1/7-5[8:1],7/1-3[8:1],1/8-6[8:1],8/2-4[8:1],
2/8-6[8:1],8/2-4[8:1],2/8-6[8:1],8/2-4[8:1],
{8}2/7-5[8:1],7,1-3[8:1],1,{4}4-6[8:1],1/4-2[8:1],
7/4-6[8:1],1/4-2[8:1],7/4-6[8:1],1/4-2[8:1],
7/4-6[8:1],1/4-2[8:1],7/4-7[8:1],1/4-1[8:1],
6/4-7[8:1],2/4-1[8:1],6/4-7[8:1],2/4-1[8:1],
6/4-7[8:1],2/4,{16}3/8,,,8/3,,,{8}8/3,
{16},8/3,,,{8}2,4,{16}5/1,,,5/1,,,{8}5/1,
{16},5-7[0.2093##0.1395]/1-3[0.2093##0.1395],,,,,,,8/4,,,4/8,,,{8}4/8,
{16},4/8,,,{8}7,5,{16}1/6,,,1/6,,,{8}1/6,
{16},1/6,,,B6,E7,,,2,8,2,8,{4}2,
{16}3,4,3,4,{4}3,{16}6,5,6,5,{4}6,
{16}7,1,7,1,{4}7,{32}6/2b,3,4,5,6,7,8,1,2b,3,4,5,6,7,8,1,
2b,3,4,5,6,7,8,1,2b,3,4,5,6v3-1-7-4b[8:5],7,8,1,{2}2h[4:3],
{8},,,,3,3,{16}5-2-4[4:1],6,7,8,
,,,,{8}7,7,{16}5,4,3,2,{8}8h[8:1],{16}1,7h[8:1],
,5,4,3,8/2,7,6,5,{8}1,1,{16}4-2-5[4:1],5,6,7,
,,,,{8}8,8,5-1[8:1],7-4[8:1],5,7,
2-6[8:1]*-5[8:1],3/1,,,7,7,{16}4-7-5[4:1],3,2,1,
,,,,{8}2,2,{16}4,5,6,7,{8}1h[8:1],{16}8,2h[8:1],
,7,6,5,{8}3/4,3/4>6[4:1],,4/2,{16},,4>6[4:1],3,
{8}2,4/1,{16},,5,4,3,2,{8}1bx/B5/E5,{16},7b/C,,,{8}E6/B5/2bv3[4:1],
E3/B3/8bv7[4:1],{16},,,,,,,,5-7-4[4:1],4,3,2,
,,,,{8}1,1,{16}4,5,6,7,{8}1h[8:1],{16}8,2h[8:1],
,7,6,5,3/4v7[8:1],2,1,8,,,,,1-6-8[4:1],2,3,4,
,,,,5,4,3,2,1bx/8b,,,6b/5b,,,{8}4b/3b,
1b/2-5[8:1],8,{4}2b/7,{8}6,6,{16}4-7-5[4:1],3,2,1,
{48},,,,,,,,,,,,{12}8x,8x,8x,{8}6,6,{16}1-6-2[4:1],2,3,4,
,,,,{8}5b,5b,{16}1,8,7-4[8:1],6,{4}5/3,
{16}8,1,2-5[8:1],3,{4}4/6-1[8:1],{8},,B5/E5,E1/B1,
B4/E4,B8/E8,B3/E3,B7/E7,{4}1b,{8}2/8,2,
7-5[8:1],{16}3,2,{4}7/1,{16}2,4,3,4,{8}2,8,
1,{16}7,5,6-3[8:1],5,{8}7,{4}2/6,{8}1,1,
2/8,{16}7,3,{4}7h[8:1],{16}2-5[8:1],8,2,8,{4}2x-6[8:1]*-6[8:1],
2x-7b[8:1],2bx,1b/5b,{8}2/4,3/5,
6/4-1[8:1],7/5,{4}8h[8:1],{16}3,7,3,7,{8}4,4,
5h[8:1],{16}4,6h[8:1],,5,{8}7,{4}8b/4b,{8}7/5,6/4,
3/5-8[8:1],2/4,{4}1h[8:1],{8}2-5[8:1],8-6[8:1],2,8,
4-8[8:1]*-7[8:1],5/3,,,{4}6b/2b,{8}7/1,7,
2-4[8:1],{16}6,7,{4}2/8,{16}7,5,6,5,{8}7,1,
8,{16}2,4,3-6[8:1],4,{8}2,{4}3/7,{8}7,7,
4/8,{16}7,5,{4}6h[4:1],{16}4V68[4:1],3,2,1,{4}8V24[4:1],
4-7[8:1],{16}8,1,2,3,{8}4/8bx-6[8:1],8,5-1[8:1],5,
7x-4[8:1],7,{4}2b,{8}3-1[8:1],3x,4-8[8:1],4,
2x-5[8:1],2,{4}7,{16}6,7,8,1,4,3,2,1,
4b/8V24[4:1],5,6,7,{4}8/4-6-8[4:1],{16}8-4[8:1],1,2,3,{4}4,
{8}5-1b[8:1],6/4,{64},,,,,,,,,,,,,,,,7b/3b<4<5<6<7>8>1b[4:11],3?-5-7-1[64:175],{1},,,{16},,,{32},{16}2,
8,{8}2,
{2}3/7,{16}2,8,2,8,{4}2,
{16}3,4,3,4,{4}3,{16}6,5,6,5,{4}6,
{16}7,1,7,1,{4}7,{32}6/2b,3,4,5,6,7,8,1,2b,3,4,5,6,7,8,1,
2b,3,4,5,6,7,8,1,2b,3,4,5,6v3-1-7-4b[8:5],7,8,1,{2}2h[4:3],
{16},,,,,,,,1/5,,,5/1,,,{8}2,
{16}3/8,,,8/3,,,2,3,6/4,,,4/6,,,{8}6/4,
{16}7,5,,5v7-1-3-6-8-2-4[0.3488##1.9535],,5,{8}8xh[8:15],{1},,{16}7/3,
,,3/7,,,{8}6,
{16}1/5,,,5/1,,,2,3,4/6,,,6/4,,,{8}4/6,
{16}3,5,,5v3-1-7-4-2-8-6[0.3488##1.9535],,5,{8}2xh[8:15],{1},,{16}2/5,
,,5/2,,,{8}3,
{16}4/8,,,8/4,,,7,6,5/3,,,3/5,,,{8}3/5,
{16}2,4,,4v2-8-6-3-1-7-5[0.3488##1.9535],,4,{8}1xh[8:15],{1},,{16}2,
4,2,4,1v2-4[8:3],5,1,5,
,,,,,,,,7,5,7,5,8-6v5[4:1],4,8,4,
,,,,,,,,2h[16:1]/4h[16:1],,,5/1,,2,3,4,
7h[16:1]/5h[16:1],,,8/4,,7,6,5,4h[16:1]/2h[16:1],,,5/1,,6,7,8,
{32}3/1,4,5,6,7,8,1,2,3/7,4,5,6,7,8,1,2,{64}3/5b<4b[4:27],5?p4[64:431],{1},,,,,,,{4},,,{16},,,{32},{4}6bh[8:1]/5bh[8:1],
6h[8:1]/5h[8:1],
6h[8:1]/5h[8:1],{8}7,5,{4}4h[8:1]/8h[8:1],8h[8:1]/4h[8:1],
8h[8:1]/4h[8:1],{8}7,5,{4}6h[8:1]/1h[8:1],6h[8:1]/1h[8:1],
1h[8:1]/6h[8:1],{8}7,8,6,1,{4}5h[8:1],
5h[8:1]/2h[8:1],{8}1,2,{4}4h[8:1]/3h[8:1],3h[8:1]/4h[8:1],
3h[8:1]/4h[8:1],{8}2,4,{4}5h[8:1]/1h[8:1],1h[8:1]/5h[8:1],
1h[8:1]/5h[8:1],{8}2,4,{4}3h[8:1]/8h[8:1],3h[8:1]/8h[8:1],
8h[8:1]/3h[8:1],{8}2,1,3,8,4,7,
{4}5h[8:1],6h[8:1]/5h[8:1],7/4-8[4:1],7,
7,{8}7/1,2,{4}3/7v4[4:1],3,
3,{8}3/5,6,{4}7/3v8[4:1],7,
7,{8}7/1,2,3/4,5,{4}2/6,
2/6,{8}2/8,2/8,{4}7/3v6[4:1],7,
7,{8}7/5,4,{4}3/8v5[4:1],3,
3,{8}3/6,7,{4}8/3v6[4:1],8,
8,{8}8/5,7,6/4,4/6,{16}3,5,3,5,
{24}2,1x,8x,7x,6x,5x,{4}4x-8b[8:1],{2}Cf/4bx>3>2<1<8<7<6>5[4:27],
{1},,,,,,,{16}3x,
4x,3x,4x,{8}3x,5x,{16}6/1,,,1/6,,,{8}1/6,
{16},1/6,,,{8}7,5,{16}4/8,,,4/8,,,{8}4/8,
{16},4-2[0.2093##0.1395]/8-6[0.2093##0.1395],,,,,,,1/5,,,5/1,,,{8}5/1,
{16},5/1,,,{8}2,4,{16}8/3,,,8/3,,,{8}8/3,
{16},8/3,,,B3,E3,,,7,1,7,1,{4}7,
{16}6,5,6,5,{4}6,{16}3,4,3,4,{4}3,
{16}2,8,2,8,{4}2,{32}1b,8,7,6,5,4,3,2,1b,8,7,6,5,4,3,2,
1b,8,7,6,5,4,3,2,1b-5[1.1163##0.1395],8-4b[1.0814##0.1395],7,6,5,4,3,2,{2}8xh[2:1]/1xh[2:1],
{4},8x/1x,{8}3b/6b,{16}2,1,{8}2,8,
7/1,{16}6,5,{8}6,4,8/4,{16}8,7,{8}6/2,{16}2,3,
{8}7/4,{16}7,6,{4}5/3h[4:1],{16}4,5,6,7,4,3,2,1,
7,6,5,4,1,2,3,4,{8}7b/5bx,8b/1b,{4}6b/2b-5b[8:1],
{16}2b/1,8,7,6,4,3,2,1,{8}8/7,{16}6,5,{8}6,4,
5/3,{16}2,1,{8}2,8,1/7,{16}1,2,{8}7/3,{16}7,6,
{8}5/2,{16}2,3,{4}4/6h[4:1],{12}5,7,3,4,2,8,
1,7,5,6,3,4,{8}2,1b/8b,{16},7b/5b,,,{8}4b/3b,
2b/6b,{16}1,7,1,7,{8}8h[4:1],{16}6,5,{8}4,{16}5/1,6/2,
{8}7-4[8:1]/3-8[8:1],8/4,{4}7/3,{8}1/5,{16}1,2,{8}3/7,{16}7,6,
{8}5/2,{16}2,3,{8}6/4,7,{16}8/5,4,3,2,5/1V35-7[8:3],8,7,6,
{4}1/5V71[4:1],{8}1b<4[16:5],3,5b>7[8:3],3b,{4}1<5[4:1],
{16}5b-1[8:1]*-8[8:1],4,3,2,,,,,2,6,2,6,3,7,3,7,
4v1[8:1],8,4,8,,,,,7,3,7,3,6,2,6,2,
5v7[8:1],1,5,1,{32},,,,,,,,2,3,4,5,6,7,8,1,2,3,4,5,6,7,8,1,
{12}2h[2:1]/E7,E8,E1,E2,E3,E4,{2}E5h[4:3],
{24},,,,,,6,7,8,1,2,3,{4}5/4h[2:1],{12}6,7,8,
{8}1h[2:1],{16},,,,5,4,{4}3h[2:1],{8}8,6,
4h[2:1],{16},,,,7,6,{8}5h[2:1],{16},,,,8,7,
{8}6h[8:3],{16},,,,3,4,{8}5h[8:1],{16}2,3,{8}4h[8:1],{16}1-6-8[4:1],2,
{8}3h[8:1],{16},,,,4,3,{4}2h[2:1],{12}7,6,5,
{8}4h[8:3],{16},,,,3,2,{4}1h[2:1],{8}3,5,
7h[2:1],{16},,,,6,5,{8}4h[8:3],{16},,,,8,7,
{8}6h[8:3],{16},,,,5,4,{8}3,8,{4}8h[4:1],
{8}2,1,8,7,{2}6h[1:2]/4v7-5-3-1[4:7],
{8},,,,,,,,,,,,,,8/7,
8/7,
8/7,8/7,8/7,8/7,{32}1,2,3,4,5,6,7,8,1,2,3,4,5,6,7,8,
1,2,3,4,5,6,7,8,{4}1/C,{16}2/8,,,8/2,,,{8}4/3,
{16}1/6,,,1/6,,,2,3,4/8,,,8/4,,,{8}8/4,
{16}7,5,,6/4-1-3-5s1-7-5-8[0.3488##1.8139],,5,{8}3xh[8:15],{1},,{16}7/1,
,,1/7,,,{8}5/6,
{16}8/3,,,8/3,,,7,6,5/1,,,1/5,,,{8}1/5,
{16}2,4,,3/5-8-6-4z8-2-4-1[0.3488##1.8139],,4,{8}6xh[8:15],{1},,{16}3/5,
,,3/5,,,{8}1/2,
{16}7/4,,,4/7,,,8,7,6/2,,,2/6,,,{8}6/2,
{16}3,5,,4/6-8v2-4-7-1-3-5[0.3488##1.9535],,5,{8}7xh[8:15],{1},,{16}4,
8,3,7,2-4-8[8:3],6,1,5,
,,,,,,,,5,1,6,2,7-1-5[8:3],3,8,4,
,,,,,,,,2h[16:1]/4h[16:1],,,5/1,,2,3,4,
7h[16:1]/5h[16:1],,,8/4,,7,6,5,4h[16:1]/2h[16:1],,,5/1,,6,7,8,
{32}3/1,4,5,6,7,8,1,2,3/7,4,5-1b[0.2093##0.1395],6,7,8,1,2,{24}3/5b,B5,C,B1,
E
