&title=Victory Sense
&artist=KAH
&first=0.14
&des=桂花君 as 自己的真实ID!「MMFC4」
&lv_5=13+
&inote_5=(155)
{1}5-2[2:1]*-8[2:1],
{4}6h[4:5],5,,5,
{4},5,{16}5b/4,5/4b,,7b/2,,5/4b,,,
{4}3h[4:3],4,,4,
{16}5b/4,4b/5,,7b/8,,1b/2,,3b/4,,5b/6,,1b,1b,8b,1b,,
{8}5b-1[8:1],,4,4b-8[8:1],,,3,3b-7[8:1],
{8},,2,2b-6[8:1],,8,8,8,
{1}1bqq6[2:1]*pp2[4:1],
{16}2b/5,5b/2,,7b/4,,,3b/6,,5b-1[8:1]/4-8[8:1],,,,5/4b,,,,
{4}8<1[4:6],3,,2,
{4},1,,8,
{4}1>8[4:6],6,,7,
{4},8,,1,
{4}2<3[4:6],3,,2,
{4},1,,8,
{16}54,,3,,45,,6,,4,4,5,5,3,3,6,6,
{1}2bq5[2:1]*p7[2:1],
{16}17,,,3,34,,2,,82,,,6,65,,7,,
{16}17,,,3,34,,2,,2-5[8:1]/7-4[8:1],8,1,,27,,,,
{16}28,,,4,35,,2,,71,,,5,64,,7,,
{16}28,,,4,35,,2,,1-5[8:1],8,2,7,1b,,,,
{16}28,,6,5,6,,7,,28,,6,5,6,,7,,
{16}71,,3,4,3,,2,,7/1-5[8:1],,3,4,1,,,,
{16}1,8,2,7,3,6,4,5,4,5,3,6,2,7,1,8,
{32}1,2,3,4,5,6,7,8,1,2,3,4,5,6,7,8,{6}1/5b,8b/4,7/3b,
{1}6bV47[2:1]/2V41[2:1],
{4}3b,2b,1b-5[8:1],7b,
{4}3-7[8:1]/7-3[8:1],,{16}6h[8:1]/2h[8:1],,,4h[8:1]/8h[8:1],,,37,,
{4}1-5[8:1]/5-1[8:1],,{16}7h[8:1]/3h[8:1],,,1h[8:1]/5h[8:1],,,26,,
{4}4-8[8:1]/8-4[8:1],,{16}6h[8:1]/2h[8:1],,,3h[8:1]/7h[8:1],,,15,,
{16}3,4,3,1,3,4,3,8,3-8[16:1]*-1[16:1],4,3,7,3b,,,,
{4}2-5[8:1]/6-1[8:1],26,{16}4h[8:1]/8h[8:1],,,2h[8:1]/6h[8:1],,,37,,
{4}1v4[8:1]/5v8[8:1],15,{16}7h[8:1]/3h[8:1],,,1h[8:1]/5h[8:1],,,26,,
{4}4>1[8:1]/8<5[8:1],48,8q4[8:1]/4q8[8:1],48,
{16}8,1,7,2,8,1,6,3,8-4[8:1],1,7,2,8b,,,,
{16}7-5[8:1],,2,,7>1[8:1],,4,,7-3[8:1],,3,3,7,,1,,
{16}2>4[8:1],,7,,2-8[8:1],,5,,{12}2-6[8:1],7,7,{16}2,,8,,
{16}7-3[8:1],,2,,7-5[8:1],,4,,7>1[8:1],,3,3,7,,4,,
{12}6,5,7,3,4,2,{8}5-2[8:1]*-8[8:1],64,5,,
{32}2b,3,4h[8:1],,,,8b,7,6h[8:1],,,,1b,2,3h[8:1],,,,7b,6,5,,,,1,,,,28,,,,
{32}7b,6,5h[8:1],,,,2b,3,4h[8:1],,,,8b,7,6h[8:1],,,,1b,2,3,,,,8-4[8:1],,,,,,,,
{1}8b<1[2:1]*q1[2:1],
{16}27,,,6,4,,3,,2>5[8:1]/5<8[8:1],,1,,25,,,,
{8}7<4[8:1],,73,2>5[8:1],,72,8p4[8:1],,
{8}28,1q5[8:1],,61,7-3[8:1],,3,,
{8}2-5[8:1],,62,6-1[8:1],,63,3-7[8:1],,
{8}3/8-4[8:1],,28,2-5[8:1],,72,7-4[8:1],2,
{8}1-5[8:1],2,1/8-4[8:1],7,8/2-6[8:1],1,2/7-3[8:1],8,
{8}7/1>4[8:1],2,1/8<5[8:1],7,8/4v1[8:1],3,6,7,
{16}8,1,6,3,7,2,5,4,6,3,5,4,8,1,7,2,
{32}8,7,6,5,4,3,2,1,8,7,6,5,4,3,2,1,{8}8/4,6/2b,8b-4[8:1]/4,,
{1}8b/3bp6[8:7],
{1}3>6[8:7],
{1}4>5[8:7],
{1}4qq1[2:1]*pp7[2:1],
{1}6q3[8:7],
{1}6<3[8:7],
{1}5<4[8:7],
{1}5qq8[2:1]*pp2[2:1],
{4}6,5,4,3,
{4}75,64,53,42,
{4}7h[8:1]/5h[8:1],6h[8:1]/4h[8:1],5h[8:1]/3h[8:1],4h[8:1]/2h[8:1],
{16}1b/8,8b/1,,7b/5,,5b/4,,4b/2,,1/8b,,3b/6,,2b/7,7b/2,,
{16}8-6[8:1],,2,2,8,,3,,8-4[8:1],,2,2,8,,1,,
{16}1-3[8:1],,7,7,1,,6,,1-5[8:1],,7,7,1,,8,,
{16}1,2,3,4,5,6,7,8,{32}1,2,3,4,5,6,7,8,1,2,3,4,5,6,7,8,
{16}1b,5,3,7,2b,6,4,8,1b,8,3,4b,1,8,5b,6,
{1}1h[4:3],
{2}4q8[8:1]/6p2[8:1],1bpp1[6:1]*-7[16:1],
{16}7h[8:1],,5,7,4,6,3,5,2h[8:1],,4,2,5,3,6,4,
{16}7h[8:1],,3,3h[8:1],,5,5h[8:1],,1,8,3,4,1,8,5,6,
{16}1,,2h[8:1]/4b,,,3b/5h[8:1],,,4h[8:1]/6b,,,5b/7h[8:1],,,1/8b,,
{16}8,,7h[8:1]/5b,,,6b/4h[8:1],,,5h[8:1]/3b,,,4b/2h[8:1],,,8/1b,,
{16}2h[8:1],,4,2,5,3,6,4,7h[8:1],,5,7,4,6,3,5,
{16}2h[8:1],,6,6h[8:1],,4,4h[8:1],,5,4,1,2,5,4,7,8,
{16}6,,7h[8:1]/5b,,,6b/4h[8:1],,,5h[8:1]/3b,,,4b/2h[8:1],,,8b/1,,
{8}1bw5[8:1],,1b,,6/1b-5[8:1],8b/3,,,
{16}7,8,5,4,1,2,5,4,7,8,6,5,1,2,4,3,
{16}6,5,7h[8:1],,3,3h[8:1],,5,5h[8:1],,7,6,1,8,3,4,
{16}1,,3h[8:1]/4b,,,1b/8h[8:1],,,6h[8:1]/5b,,,8b/1h[8:1],,,7/2b,,
{16}8,,6h[8:1]/5b,,,8b/1h[8:1],,,3h[8:1]/4b,,,1b/8h[8:1],,,3/6b,,
{16}1,8,3,4,1,8,5,6,8,7,4,5,2,1,4,5,
{16}2,1,3,4,8,7,5,6,1,1,8,1,5,4,6,3,
{16}7,8,5,4,1,2,4,3,2b/4,,,7b/5,,,2b/7,,
{16}8b/1>8[2:1],,,,,,,,1,,,1,,,1,,
{16}2-5[8:1],,,7,72,,8,,2-5[8:1],,,7,72,,8,,
{16}7-4[8:1],,,2,27,,1,,7-4[8:1],,2,2,7,,1,,
{16}3-8[8:1],,,6,36,,5,,3-8[8:1],,,6,36,,5,,
{16}6-1[8:1],,,3,36,,4,,6-1[8:1],,3,3,6,,4,,
{8}5b-1[8:1],,2,3,4b-8[8:1],,1,2,3b-7[8:1],
{8},8,1,2b-6[8:1],,7,8,
{1}1bqq6[2:1]*pp4[2:1],
{16}7b/5,,,5/4b,,,2/4b,,,5/4b,,2/7b,,1b/8,,,
{1}7bV51[1:3]/2bs6[4:3],
