&title=ウッーウッーウマウマ(゚∀゚)
&artist=Caramell/Caramelldansen [cover]
&first=0
&des=reflectW
&lv_6=13
&inote_6=(164.73){1}
,
{16},,,,,,,,4,,5,,3,,6,,
{16}2/7,,,1,,,1h[16:4],,,,8,,1,,7h[8:5],,
{8},,,,1,6,2,7,
{16}3,,,36,,,36,,,,1,,8,,26,,
{16}4,5,4,5,3,6,3,6,2-6[8:1],7,2,7,2V48[8:3]*V46[8:3],,,,
{16}2,,,,,,,,1,7,1,7,2,8,2,8,
{16}3,1,3,1,4,8,4,8,5,7,5,7,4,6,4,6,
{16}3,7,3,7,2,6,2,6,1,5,1,5,8,4,8,4,
{16}8,4,8,4,8,4,8,4,8,4,1,5,2,6,3,7,
{32}4h[4:1],,,,,,,,8,,7,,6,,5,,4,,3,,2,,1,,8,,7,,6,,5,,
{32}4,,3,,2,,1,,8b,7,6,5,4,3,2,1,8,7,6,5,4,3,2,1,8,,,,,,,,
{16}8/2,,3,5,4,6,5,,7,7,,3,3,,46,,
{16}1/7,,6,4,5,3,4,,2,2,,6,6,,35,,
{16}8/3,,2,4,3,5,4,,6,6,,1,1,,43,,
{16}1/6,,7,5,6,4,5,,3,3,,8,8,,56,,
{16}8/2,,3,5,4,6,5,,57,6,,6,57,,4,,
{16}1/7,,6,4,5,3,4,,42,3,,3,42,,5,,
{16}8/3,,2,4,3,5,4,,57,6,,6,57,,4,,
{16}1/6,,7,5,6,4,5,3,4,2,3,1,2,,,,
{8}8/2,7,7/1,2,8/2,7,1/7,2,
{16}8/2,,73,,46,,35,,2,4,2,,17,,26,,
{8}1/7,2,2/8,7,1/7,2,8/2,7,
{16}1/7,,26,,53,,6,4,6,4,6,,82,,73,,
{8}4/3,2,6/5,7,4/3,2,6/5,7,
{16}34,,25,,56,,47,,3,5,3,,8/7,,1/8,,
{16}1/2,,3,,87,,6,,4,5,4,,5/6,,45,,
{16}34,,2,,56,,7,,1,8,1,,8/7,,1-4[8:1],,
{8},2h[8:1]/1b-6[8:1],,1b-4[8:1]/8h[8:1],,2h[8:1]/1b-6[8:1],,8h[8:1]/1b-4[8:1],
{8},1b-6[8:1]/2h[8:1],,1b-4[8:1]/8h[8:1],,1b,2b,8-5[8:1],
{8},7h[8:1]/8b-3[8:1],,8b-5[8:1]/1h[8:1],,7h[8:1]/8b-3[8:1],,1h[8:1]/8b-5[8:1],
{8},8b-3[8:1]/7h[8:1],,8b-5[8:1]/1h[8:1],,8b,7b,1^6[8:1],
{8},2-5[8:1]/1b^4[8:1],,1b^6[8:1]/2,,2-5[8:1]/1b^4[8:1],,2/1b^6[8:1],
{8},1b^4[8:1]/2-5[8:1],,1b^6[8:1]/2,,1b,2b,8^5[8:1],
{8},7-4[8:1]/8b^3[8:1],,8b^5[8:1]/7,,7-4[8:1]/8b^3[8:1],,7/8b,
{8},,27,,36,,45,,
{8}87,87,12,12,56,7,34,2,
{8}67,58,23,14,87,6,12,3,
{8}56,56,43,43,87,6,21,3,
{8}76,85,32,41,56,7,43,2,
{8}87,16,12,38,56,47,34,52,
{8}68,15,24,15,87,6,12,3,
{8}12,83,87,61,43,52,65,47,
{8}31,84,75,84,56,7,43,2,
{8}3/1,4,86,5,2h[8:1],3h[8:1],2h[8:1],3h[8:1],
{8},7b/5b,8,2b/4b,1,4b/5b,1b/8b,,
{8}6/8,5,13,4,7h[8:1],6h[8:1],7h[8:1],6h[8:1],
{16},,6/5,,54,,4/3,,1,8,2,7,1,,36,,
{8}2/4,1,57,8,3h[8:1],4h[8:1],5h[8:1],6h[8:1],
{8},6b/8b,5,3b/1b,4,1b/8b,4b/5b,,
{8}7/5,8,42,1,6h[8:1],5h[8:1],4h[8:1],3h[8:1],
{16},,45,,36,,27,,1,8,,8,1,,2b/7b,,
{8}1,2b^5[8:1]/7b,1,7b^4[8:1]/2b,8,2b^5[8:1]/7b,1,7b^4[8:1]/2b,
{8}8,2b^5[8:1]/7b,1,7b^4[8:1]/2b,,7b,3b,,
{8}4,3b^8[8:1]/6b,4,6b^1[8:1]/3b,5,3b^
8[8:1]/6b,4,6b^1[8:1]/3b,
{8}5,3b^8[8:1]/6b,4,3b/6b^1[8:1],,6b,2b,1-4[8:1],
{8}5,1b-6[8:1],5,1b-4[8:1],5,1b-6[8:1],5,1b-4[8:1],
{8}5,1b-6[8:1],5,1b-4[8:1],5,1b,5b,,
{8}35,2b/6b,1/2,3b/8b,8/7,1b/6b,46,3b/7b,
{4}15,3b/6b,2b/7b,8b/1b,
{8}87,35,12,47,56,82,34,17,
{8}56,12,34,87,23,14,76,85,
{8}12,64,87,52,43,17,65,82,
{8}43,87,65,12,76,85,23,14,
{8}87,35,12,47,56,82,34,17,
{8}56,12,34,87,23,14,76,85,
{8}12,64,87,52,43,17,65,82,
{8}43,87,65,12,45,36,72,1b^4[4:5]/8b^5[4:5],,,,,,,,,,,,,,,,,,,,,,,,,,,,,,,,,
