&title=春菊
&artist=SUWAKI
&first=0.17
&des=Jack2310
&lv_5=13.8
&des_5=Jack2310
&inote_5=
(171){4},,,,,,,,8<5[8:1],
3,2<7[8:1],5,
4<7[8:1],{8}3,2,1>4[8:1],8,{4}7,
6>3[8:1],1,2>5[8:1],7,
6<1[8:1],4,3>8[8:1],6,
5<8[8:1],2,3<6[8:1],8,
1<6[8:1],{8}2,3,4>1[8:1],5,{4}6,
7>2[8:1],4,3>8[8:1],6,
7<4[8:1],1,2>5[8:1],7,
4/E6,3h[8:1]/E7,2h[8:1]/E8,3h[8:1]/E1,
5h[8:1]/E2,6h[8:1]/E3,{8}7/E4,6,{4}7h[8:1]/E5,
1/E6,2h[8:1]/E7,3h[8:1]/E8,2h[8:1]/E1,
3h[8:1]/E8,E7/1>5[4:1],5<1[4:1],1,
5h[8:1],6/4h[8:1],5/3h[8:1],2/4h[8:1],
{8}3/5,5,6/4,4,3/5,2,6/1,7,
8/1,2,6/3,4,5/3,2,6/1,3,
{16}5,4,5,4,6,3,6,3,7,2,7,2,8,1,8,1,
{8}7b/2,3/6,{16}5,4,{8}5,6b/3b,7/2,{16}1,8,{8}1,
7b/2b,6/3,{16}5-1[8:1],4,{8}5,2b-7[8:1],3,2/4b,5,
8/6b,5/1,{16}2,4,{8}2,5b/3b,6/2,{16}7,8,{8}7,
8b/1-5[8:1],2,1/7b<4[8:1],8,{16}7/3b,2,1,8,{8}5,1,
2b/5b,6/1,{16}7,8,{8}7,6b/4b,5/3,{16}2,1,{8}2,
5b/3b,6/4,{16}7-4[8:1],8,{8}7,3b-6[8:1],2,3/7b,8,
7/1,8/2,{16}3,4,{8}3,8b/2b,7/1,{16}6,5,{8}6,
7b/1b,2,1/7,6,7b-3[16:1],8b-4[16:1],7,8,
5,6/3,{16}7,8,{8}7,5b/3b,6/4,{16}2,3,{8}2,
4b/1b,5/2,{16}6-1[8:1],5,{8}6,2b-5[8:1],3,2/7b,8,
7/2,8/1,{16}7,6,{8}5,8/2,7/1,{16}2-7[8:1],3,{8}4,
6-1[8:1],5,6/2>5[8:1],3,{16}2/6b,7,8,1,{8}4,7,
6b/4b,3,{16}6,5,{8}6,{32}4bx,3x,{16}2x,{32}5bx,6x,{16}7x,{32}3bx,2x,{16}1x,{32}6bx,7x,{16}8x,
{8}3,4,{16}5<3[4:1],6,{8}5,{32}E6,E7,E8,E1f,,,,,,,,,,,,,{8}4/3,
5,{16}3,4,{8}3,{16}8,7,6,5,{8}3,4,
{16}5,4,6,3,7p4[4:1],2,8,1,{2}7,
{8}4b/5b,{16}2,3,,5,{8}4,3,1/2,{16}8,1,8,1,
{8}2/7,{16}6,5,,7,{8}8,8,2/1,{16}4,5,4,5,
{8}3/6,{16}7,8,,4,{8}3,2,1/3,{16}6,5,6,5,
{8}7/4,{16}3,4,,6,{8}5,3,1/2,{16}1,8,1,8,
{8}2-5[8:1],{16}1,2,,6,,,{8}3/7-4[8:1],2,7/3,2,
1/4-7[8:1],{16}3,4,,2,,,{8}6/8-3[8:1],5,8/6,5,
2/7<4[8:1],{16}1,8,,3,,,{8}6/2>5[8:1],7,2/6,7,
8/4>1[8:1],{16}6,5,,7,,,{8}6/2<7[8:1],5,2/6,5,
{16}6b,3,5,4,6p4[16:3],3,5,4,,,,,2x,3x,{8}4x,
{16}3,6,2,7,3p1[16:3],6,2,7,,,,,7x,6x,{8}5x,
{16}8,1,7,2,{4}8<4[8:1],2b,{64}E3,B3,{32}B4,{64},,,,E8,B7,{32}B6,,,{16}4,
6,3,5,2,6,,,2x/7p5[16:3],3x,{8}4x,{4}2b,
{16}3,6,2,7,1q3[16:3],8,2,7,,,,,5x,6x,{8}7x,
{16}8,1,7,2,6p4[16:3],3,{8}7,{4}4b,{16}2x,3x,{8}4x,
{16}1,7,2,6,{4}3>7[8:1],5b,{64}E7,B6,{32}B5,{64},,,,E2,B2,{32}B3,,,{16}5,
4,6,3,7,2,,,2x/7p5[16:3],3x,{8}4x,,,2b,
{16}3,4,,6,{8}5,7/2-5[8:1],3,2/6,7,
4/3,{16}1,2,,5,{8}6,3/7-4[8:1],8,7/2,1,
3/8,{16}4,5,,7,{8}8,1/2>5[8:1],8,7/2,6,
7/4,{16}8,1,,3,{8}4,2/7<4[8:1],8,7/1,2,
3b/5b,8,6/5,1,3/4,6,2/1,4,
7b/8b,2,6/5,8,3/4,6,1/2,4,
8b/7b-3[8:1],6,7/1-6[8:1],2,1/4b-7[8:1],5,4/3-8[8:1],2,
3/6b-2[8:1],7,6/1,1,{16}8b,7x,6x,5x,4x<3[2:7],3x,2x,1x,
{1}Ch[4:31],
{4},,,,,,,,,,,5>8[2:3],
,,,,,,,5<7[2:1],
,,,7-3-5[8:7],
,,,,4,
B4/6-1[8:1],{2}2-5[8:1],
{4}6/3,B1/6-3[8:1],{2}2-7[8:1],
{4}5/4,B8/3>8[8:1],{2}7<4[8:1],
{4}6/3,B5/2<7[8:1],{2}6>3[8:1],
{4}2/5-1[8:1],5/B3f,6/3-7[8:1],3/B6f,
1/6v3[8:1],6/B2f,5/1v4[8:1],B1f/6-3[8:1],
6/1-4[8:1],1/5-8[8:1],5/2-7[8:1],2/6,
{8}1/8,7,6/3,4,{16}5b,4,6,3,7,2,8,1,
{8}7b-4[8:1],6,7/1-5[8:1],2,{4}1/7,{8}1/8-4[8:1],7,
{4}8/1b-5[8:1],1/2b-6[8:1],2/3b-7[8:1],3/4b,
2/4-7[8:1],{8}4/2,3,2/1,2/1,5/6-1[8:1],6/5,
{4}4/6,{8}4/8<5[8:1],7,8/2-6[8:1],1,2/7,8,
3/7b-2[8:1],6,7/4-8[8:1],3,{4}4/6,{8}4/5-1[8:1],4,
{4}5/6b-2[8:1],6/7b<4[8:1],{8}7/3-8[8:1],2,{4}3/6<1[8:1],
{8}6/4b,,,4,{4}5/3>8[8:1],3/5,
4/6-1[8:1],6/3,{8}3/4,1,6/5,8,
6b/1b-5[8:1],2,1/7<4[8:1],8,{4}7/1,{8}3/5,2,
{16}4/6,3,2,1,5,6,{8}7,8/2>5[8:1],3,2/8-4[8:1],7,
{4}8/3b>8[8:1],{8}3/5b,6,3/5-1[8:1],4-8[8:1],5,4,
7-5[8:1],3-1[8:1],7-1[8:1],3-5[8:1],7b-4[8:1],3b-8[8:1],7,3,
5b,4,6,5,3/4,8/7,5/4,1/2,
{16}8b/4bx,3/7,{8}2/6,7/3-7[8:1],2,3/6b<1[8:1],4,6/3-8[8:1],2,
6b/3,5,7-4[8:1],8/1,7/2b,1,7/3,6/2,
{16}1x/5b,2x,3x,4x,5x/1b,6x,7x,8x,{4}1b/5b,1w5[8:1],
E
