&title=BlazinG AIR
&artist=kanone
&first=0
&des=nanocat.
&lv_5=14+
&inote_5=(150)
{1},
{16}1h[16:28]/7b,,,7,,,6,,,6,,,5,,,,3,,,3,,,4,,,4,,,5,,5,6,
7h[16:27]/3,,,3,,,4,,,4,,,5,,,,8,,,8,,,1,,,2,3,4h[8:1],,1,8,7,6b/2b,
,4,,37,,5,,26,,3,4,,4,2,,13,,7,,68,,2,,5,4,6,,18,,2,3,4b/6b,,6,,4,,4,,3,7,3,7,{24}2,8,2,8,2,8,{16}1bs5[2:1],,,,,,,,7x-3[8:1],,,,Cf,,,,
{16}4b,5,3,5,4,6,4,5,3,5,4,6,4,5,4,5,3,5,4,6,4,5,3,5,4,6,4,5,3,4,2,4,
1b,8,2,8,1,7,1,8,2,8,1,7,1,8,1,8,2,8,1,7,1,8,2,8,1,7,1,8,1,7,8,6,
5b,6,4,6,5,7,5,6,4,6,5,7,4,6,3,5,2,4,3,5,3,4,2,4,3,5,3,4,3,4,2,3,
1b,8,2,8,1,7,1,8,2,8,1,7,{24}1,8,1,8,1,8,{16}1h[4:1],,7,7,7h[4:1],,5,5,5h[4:1],,
{32}3,2,1,8,7,6,5,4,3,2,1,8,
{16}7b/2b-4[8:1],,6,,2-8[8:1],5,5,,2-4[8:1],7,7,,6/2-8[8:1],,5,,
2b-4[8:1]/7,,7,,2-8[8:1],5,5,,2-4[8:1],6,6,,72,,6,,
7b-5[8:1]/2,,3,,7-1[8:1],4,4,,7-5[8:1],2,2,,3/7-1[8:1],,4,,
7b-5[8:1]/2,,2,,7-1[8:1],4,4,,7-5[8:1],3,3,,27,1,8,7,6s2[3:1],,,,,,,,
4x-8[8:1],,,,1,2,3,4,5s1[3:1],,,,,,,,7xv5[8:1],,,,
8,1,2,3,
46,,8,,35,,1,,2,1,3,8,2,1,4,7,2b-4[8:1],,,,5-1[8:1],,6,,7s3[8:1],,,,Cf,,,,
24,,1,,35,3,6,5,,8,58,,17,,2,3,45,,7,,25,2,7,8,,6,46,,42,,8,7,64,,2,,71,1,4,3,,
6,64,,2/8-5[8:1],,1,2,3/8b-3[8:1],,4,,8-5[8:1],5,5,,8b-3[8:1],2,2,,8,4,4,,
28,,6,,17,1,4>1[8:1],3,,6,64,,5,,1,2,35,,7,,46,4,8>3[8:1],2,,6,68,,7,,8,7,
64,,1,,38,8,4<7[8:1],6,,2,24,,3,,38,27,1-5[8:1]/6-2[8:1],,8,,16,,,,
{32}1-5[8:1],8,7,6,5,4,3,2,1b,,,,,,,,
{16}3b/4b-8[8:1],,2,,34,,2-6[8:1],1,,1,2,,5-2[8:1],5,,7,7/5b-8[8:1],,6,,5>2[8:1]/3,,4,,5b<8[8:1]/7,,6,,51,,2,,3/1-5[8:1],8,7,,18,,6-1[8:1],4,,4,6,,2-8[8:1],2,,7,
{32}7/2b-4[8:1],,,,7,6,5,,2-8[8:1],,,,6,7,8,,2b-4[8:1],,,,7,6,5,,2,,,,6,7,8,,
{8}1x-3-7-4[2:1],,3h[2:1],,,,,15,3/7-3[8:1],,,2h[2:1],,B3/B4/C,,B7/B8/C,
34,34,45,45,56,45,{24}3,4,3,4,3,4,
{16}2b/5b,,4b/7b,,1b,1b,1b,1b,2/8w4[8:1],,,,8,,,,
{1}A1/E8/Cf/E4/A5,,
{8}3hx[2:1],,,,C/B5/B6,,,,7hx[2:1],,,,5xV31[4:1],,,,
{16}7h[16:6],,,8,,,8,,2h[16:6],,,1,,,1,,7h[16:3],,,8v5[4:1],,,6,,6,,6,,7,4,,3x/6x,,3x/6x,,,4,,5,4,,36,,,4,5,4,5,4V28[4:1],,,,8V64[4:1],,,,4w8[8:1],,,,,,,,
2h[16:3],,,1,,2,1,3,8h[16:3],,,1,,1,8,2,7h[16:6],,,8,,5,5,,46,,3h[16:3]/5,,1,1,,27,,
,1h[16:2],,8,1,7,2,,2h[16:3],,,4,2,4,3h[16:3],,,5,4,6h[16:4],,7,,8,1,2,3,8,7,6,5,
4h[16:3],,,5,,4,5,3,6h[16:3],,,5,,5,6,4,7h[16:6],,,8,,2,2,,35,,4h[16:3]/6,,8,8,,26,,
26,,,47,,6,5,,47,,,3,4,2,4,1,8,2,7,3,4,2,5h[8:1],1,8,7,6,51,48,73,26,1bx/5bx,
,34,,47,,56,,1-5[8:1]/7-1[8:1],,,,1b/7b,,,,3x/7x,,56,,25,,34,,1/6qq1[6:1],,,,3b,,,,
2x/8x,,34,,7,5,7,5,7qq5[8:1]*-1[8:1],,,,7b,,,,2x/6x,,34,,1-5[8:1],7,1,7,1V73[6:1],,6,,1b,,,,
2,1,2,1,3,5,3,5,8,7,3b,4b,2b,,,,
1,8,1,8,2,6,2,6,4,5,4,5,3b/6b,,,,
{32}2x,3,4,5,7,,,,8x,7,6,5,2x,,,,1x-5[8:1]/5,2,3,4,5,6,7,8,1b,,,,,,,,
{16}2,1,3,8,4,7,5,6,47,47,,25,,81,7,6,
5b/2b,3,4,3,1,2,7,8,16,2,4,3,6,5,8,1,27,3,5,1,7,3,6,5,37,,15,,26,26,,48,,1,
1<5[8:1],,3b/7b,,1,2,,3,4,2,8,1,8,27,4>1[8:1],6,5,7,4b<7[8:1],,6,6,1b,2,3,4,{32}8b,1,2,3,4,5,6,7,
{16}8b/2b,3,4,3,6,5,1,8,27,3,5,1,8,2,6,5,47,3,1,3,7,8,6,4,37,,15,,26,26,,48,
,3,3<6[8:1],,1b/5b,,3,7h[8:1],,1,8,2,5,4,5,4,3b/6b,,24,24,,15,26,3-6[10:1]/7-2[10:1],48,15,,3x/7x,,1x,8x,7x,
6bx/1b-6[8:1],,5x,5,1>4[8:1],,4,,{32}4/1b<6[8:1],5,6,,8x,,8,,1-4[8:1],,,,5,,,,1b-6[8:1]/5,6,7,,8x,,8,,1>4[8:1],,,,4,,,,5/1b-6[8:1],,,,6,,,,17,,7,,,,8,,
8<5[8:1],,,,4,,4,,8b-3[8:1],,,,2,,2,,8-5[8:1],,,,4,,,,8b>3[8:1]/5,4,3,,1,,,,2/8v5[8:1],,,,4,,4,,8b<5[8:1],,,,4,,,,8/4,,3,,2,,1,,5x,4,3,2,1,8,7,6,
{16}1b/5b-1[2:1],,,,,,,,,,,,,,48,,2bx-6[12:1]/6bx,,,2bx/5bx-1[12:1],,,5bx/7bx-4[12:1],,,2bx-7[12:1]/7bx,,,2bx/5bx,,6x,,1,6,5,6,1,5,4,5,1,4,3,4,{32}1b,2,3,4,8,,8,,3bx/7bx,,
,,15,,1h[16:1]/5h[16:1],,,,8x/4x,,15,,26,,37,,48,,,,26,,8bx-4b[8:1],1,2,3,4,5,6,7,8b/2h[16:12],
,,,{16},,,,,,,,,,1x,8x,7x,6x,5hx[16:12],,,E2,,,C,,,E6,,,8x,1x,2x,3x,4hx[16:12],,,
E8,,,C,,,E4,,,2x,1x,8x,7x,6hx[16:9],,,B1,,,B5,,,4x,3x,2x,1x/8x,7x,6x,5x,Cf,
