&title=little explorer
&artist=「eden*」オープニング
&first=0.02
&des=Tane
&freemsg=「eden*」オープニング
&wholebpm=
&des_1=Tane
&des_2=Tane
&des_3=Tane
&des_4=Tane
&des_5=Tane
&lv_1=2
&lv_2=4
&lv_3=6
&lv_4=9
&lv_5=13
&inote_1=(140){1},,
{8}1h[1:1],,,,
,,,,
{8},,{16},,,{32},,
{8},,,,
{8}4h[1:1],,,,
,,,{32},,,,
{8},,,,
,,,,
{8}1h[8:3],,,,
,,,,
{8}8h[8:3],,,,
,,,,
{8}1bV75[2:3]/8bV24[2:3],,,,
,,,,
{8},,,,
,,,,
{8}2,,,,
2,,,,
{8}7,,,,
7,,,,
{8}1,,,,
1,,,,
{8}8,,,,
8,,,,
{8}24,,,,
2,,,,
{8}75,,,,
7,,,,
{2}5pp8[2:3]/4qq1[2:3],,,,
{8}1,1,,,
,,,,
{8},,,,
,,,,
{8}8,,,,
,,,,
{8},,6,,
,,,,
{8}7,,,7,
,,,,
{8},,3,,
,,,,
{8}2,,,2,
,,,,
{8},,,,
,,,,
{8},,,,
,,,,
{8},,,,
6,,,,
{8}6,,,,
,,,,
{8},,2,,
,,2,,
{8}1,,,1,
,,,,
{8},,,,
,,8,,
{8},,,7,
7,,,,
{8},,,,
,,,,
{8},,,,
,,,,
{1},
{8}21,,
,,
4,,,,
{8}78,,
,,
5,,
,,
{8}12,,
,,
4,,
,,
{8}87,,
,,
5,,
,,
{8}21,,
,,
1,,
,,
{8}78,,
,,
8,,
,,
{8}2,,2,,
44,,,,
{8}7,,7,,
57,,,,
{8}3,,3,,
13,,,,
{8}6,,6,,
86,,,,
{1}2h[4:3]/7h[4:3],
{1}1h[4:3]/8h[4:3],
{4}1b,1b,1b,1b,
{4}8b,8b,8b,8b,
{8}1,,,,
8,,,,
{8}1,,,,
8,,,,
{8}4,,,,
5,,,,
{8}4,,,,
5,,,,
{8}1h[8:5],,,,
,,,,
{8}8h[8:5],,,,
,,,,
{1}1pp4[2:3]/8qq5[2:3],,
{8}1,,,,
8,,,,
{8}1,,,,
8,,,,
{16}1b,,,,
,,,,
,,,,
,,,,
{16}8b,,,8b,
,,1b,,
1b,,,,
,,,,
{8}8h[8:5],,,,
,,,,
{8}1h[8:5],,,,
,,,,
{1}4qq1[2:3]/8qq5[2:3],,
{8}26,,,,
1h[2:1],,,,
{16}8,,,8,
,,8,,
,1,,,
1,,,1,
{16},8b<1[1:2],,,,,
,,,,
{1},,,,,,,,
&inote_2=(140){1},,
{8}1h[1:1],,,,
,,,,
{8},,{16},,,{32},,
{8},,,,
{8}4h[1:1],,,,
,,,{32},,,,
{8},,,,
,,,,
{8}1h[8:3],,,,
,,1,,
{8}8h[8:3],,,,
,,8,,
{8}1bV75[2:3]/8bV24[2:3],,,,
,,,,
{8},,,,
,,,,
{8}2,,,,
4,,,,
{8}7,,,,
5,,,,
{8}1,,,,
4,,,,
{8}8,,,,
5,,,,
{8}24,,,,
8,,,,
{8}75,,,,
1,,,,
{2}5pp8[2:3]/4qq1[2:3],,,,
{8}1,1,,,
,,,,
{8},,,,
,,,,
{8}8,,,,
,,,,
{8},,7,,
7,,7,,
{8}7,,,5,
,,,,
{8},,3,,
3,,3,,
{8}3,,,4,
4,,,,
{8},,,,
,,,,
{8},,,,
,,,,
{8},,,,
6,,6,,
{8}6,,,,
,,,,
{8},,2,,
2,,2,,
{8}2,,,1,
,,,,
{8},,,,
,,8,,
{8}8,,,7,
7,,,,
{8},,,,
,,,,
{8},,,,
,,,,
{1},
{8}2,2,
,,
4,,
4,,
{8}7,7,
,,
5,,
5,,
{8}1,1,
,,
4,,
4,,
{8}8,8,
,,
5,,
5,,
{8}2,2,
,,
1,,
1,,
{8}7,7,
,,
8,,
8,,
{8}2,2,2,,
4,,4,,
{8}7,7,7,,
5,,5,,
{8}3,3,3,,
1,,1,,
{8}6,6,6,,
8,,8,,
{1}2h[4:3]/7h[4:3],
{1}1h[4:3]/8h[4:3],
{4}1b,1b,3b,3b,
{4}6b,6b,8b,8b,
{8}1h[4:1],,,,
8h[4:1],,,,
{8}1h[4:1],,,,
8h[4:1],,,,
{8}4h[4:1],,,,
5h[4:1],,,,
{8}4h[4:1],,,,
5h[4:1],,,,
{8}1h[8:3],,,,
,,1,,
{8}5h[8:3],,,,
,,5,,
{1}1pp4[2:3]/8qq5[2:3],,
{8}1h[4:1],,,,
8h[4:1],,,,
{8}1h[4:1],,,,
8h[4:1],,,,
{16}1b,,,,
,,,,
,,,,
,,,,
{16}8b,,,8b,
,,1b,,
1b,,,,
,,,,
{8}1h[8:3],,,,
,,5,,
{8}5h[8:3],,,,
,,7,,
{1}4qq1[2:3]/8qq5[2:3],,
{8}15,,,,
1h[4:1],,,,
{16}4,,,4,
,,4,,
,5,,,
5,,,5,
{16},4b>5[1:2],,,,,
,,,,
{1},,,,,,,,
&inote_3=(140){1},,
{8}1h[1:1],,,,
,,,,
{8}5h[1:1],,{16},,,{32},,
{8}4,,,,
{8}4h[2:3],,,,
,,,{32},,,,
{8}7,,,,
8,,,,
{8}1h[8:3],,,4h[8:3],
,,3,,
{8}8h[8:3],,,5h[8:3],
,,6,,
{8}1bV75[2:3]/8bV24[2:3],,,,
,,,,
{8},,,,
,,,,
{8}2h[2:1],,,,
4,,,,
{8}7h[2:1],,,,
5,,,,
{8}1h[2:1],,,,
4,,,,
{8}8h[2:1],,,,
5,,,,
{8}2h[2:1]/4,,,,
8,,,,
{8}7h[2:1]/5,,,,
1,,,,
{2}5pp8[2:3]/4qq1[2:3],,,,
{8}1,1s5[2:3],,,
,,,,
{8},,,,
,,,,
{8}8,,,,
,,,,
{8},,7,,
6,,5,,
{8}2,,,3,
,,,,
{8},,4,,
3,,2,,
{8}7,,,6,
6,,,,
{8},,,,
,,,,
{8},,,,
,,,,
{8},,,,
6,,7,,
{8}8,,,,
,,,,
{8},,1,,
2,,3,,
{8}4,,,8,
,,,,
{8},,,,
,,7,,
{8}6,,,3,
3,,,,
{8},,,,
,,,,
{8},,,,
,,,,
{1},
{8}2,2h[8:5],
,,
4,,
5,,
{8}7,7h[8:5],
,,
5,,
4,,
{8}1,1h[8:5],
,,
4,,
5,,
{8}8,8h[8:5],
,,
5,,
4,,
{8}2,2h[8:5],
,,
1,,
8,,
{8}7,7h[8:5],
,,
8,,
1,,
{8}2,2,2,,
34,,34,,
{8}7,7,7,,
56,,56,,
{8}3,3,3,,
21,,21,,
{8}6,6,6,,
87,,87,,
{1}2h[4:3]/7h[4:3],
{1}1h[4:3]/8h[4:3],
{4}1b,2b,3b,4b,
{4}5b,6b,7b,8b,
{8}1^4[4:1],,,,
8^5[4:1],,,,
{8}1^4[4:1],,,,
8^5[4:1],,,,
{8}4^1[4:1],,,,
5^8[4:1],,,,
{8}4^1[4:1],,,,
5^8[4:1],,,,
{8}1h[8:3],,,2,
,,4,,
{8}5h[8:3],,,6,
,,7,,
{1}1pp4[2:3]/8qq5[2:3],,
{8}1-5[4:1],,,,
8-4[4:1],,,,
{8}1-5[4:1],,,,
8-4[4:1],,,,
{16}1b,,,,
,,,,
,,,,
,,,,
{16}8b,,,8b,
,,1b,,
1b,,,,
,,,,
{8}1h[8:3],,,4,
,,5,,
{8}5h[8:3],,,6,
,,7,,
{1}4qq1[2:3]/8qq5[2:3],,
{8}15,,,,
1h[4:1],,5,5,
{16}4,,,6,
,,3,,
,7,,,
2,,,8,
{16},1b>8[1:2],,,,,
,,,,
{1},,,,,,,,
&inote_4=(140){1},,
{8}1h[1:1],,,,
,,,,
{8}5h[1:1],,{16},,,{32},,
{8}4,,,,
{8}4h[2:3],,,,
,,,{32},,,,
{8}7,,,,
8h[4:1],,,,
{8}1h[8:3],,,4h[8:3],
,,3,,
{8}8h[8:3],,,5h[8:3],
,,6,,
{8}1bV75[2:3]/8bV24[2:3],,,,
,,,,
{8},,,,
,,,,
{8}2h[2:1],,,,
4,,,,
{8}7h[2:1],,,,
5,,,,
{8}1h[2:1],,,,
4,,,,
{8}8h[4:3],,5,,
4,,3,,
{8}2h[2:1]/4,,,,
8,,,,
{8}7h[2:1]/5,,,,
1,,,,
{2}5pp8[2:3]/4qq1[2:3],,,,
{8}1,1s5[2:3],,,
,,,,
{8},,,,
,,,,
{8}8,,,,
,,,,
{8},,7,,
6,,5,,
{8}2,,,3,
,,,,
{8},,4,,
3,,2,,
{8}7,,,6,
5,,,,
{8},,,,
,,,,
{8},,,,
,,,,
{8},,,,
6,,7,,
{8}8,,,,
,,,,
{8},,1,,
2,,3,,
{8}4,,,8,
,,,,
{8},,,,
,,7,,
{8}6,,,3,
4,,,,
{8},,,,
,,,,
{8},,,,
,,,,
{1},
{8}12,1/2h[8:5],
,,
4,,
5,,
{8}87,8/7h[8:5],
,,
5,,
4,,
{8}18,1/2h[8:5],
,,
4,,
5,,
{8}81,8/7h[8:5],
,,
5,,
4,,
{8}53,2h[8:5]/4,
,,
1,,
8,,
{8}46,7h[8:5]/5,
,,
8,,
1,,
{8}2h[2:1],4,4,4,
4,2,3,4,
{8}7h[2:1],5,5,5,
5,7,6,5,
{8}3h[2:1],1,1,1,
1,3,2,1,
{8}6h[2:1],8,8,8,
8,6,7,8,
{8}2h[8:3],8,8,8,
{8}7h[8:3],1,1,1,
{1}1h[4:3]/8h[4:3],
{8}2b-7[8:1],,6b-3[8:1],,
4b-1[8:1],,5b-8[8:1],,
{8}1b-6[8:1],,7b-4[8:1],,
3b-8[8:1],,6,,
{8}1^4[4:1],,5,6,
8^5[4:1],,4,3,
{8}1^4[4:1],,5,6,
8^5[4:1],,,,
{8}4^1[4:1],,5,6,
5^8[4:1],,4,3,
{8}4^1[4:1],,5,6,
5^8[4:1],,,,
{8}1h[8:3],,,2h[8:3],
,,4,,
{8}5h[8:3],,,6h[8:3],
,,7,,
{1}1pp4[2:3]/8qq5[2:3],,
{8}1-5[4:1],,5,7,
8-4[4:1],,4,2,
{8}1-5[4:1],,5,7,
8-4[4:1],,,,
{16}1b,,,,
,,,,
,,,,
,,,,
{16}1b/2b,,,7b/8b,
,,2b/7b,,
2b/7b,,,,
,,,,
{8}1h[4:1]/2h[8:5],,,4h[8:3],
,,5,,
{8}4h[4:1]/5h[8:5],,,6h[8:3],
,,7,,
{1}4qq1[2:3]/8qq5[2:3],,
{8}5,4,3,2,
1h[4:1],,8,7,
{16}4h[16:1],,,6h[16:1],
,,3h[16:1],,
,7h[16:1],,,
2h[16:1],,,8h[16:1],
{16},1bw5[1:2],,,,,
,,,,
{1},,,,,,,,
&inote_5=(140){1},,
{8}1h[1:1],,,,
,,,,
{8}7h[1:1],,{16},,,{32}2,3,
{8}4,,,,
{8}2h[2:3],,,,
,,,{32},,7,6,
{8}5,,,,
8h[4:1],,,,
{8}1h[8:3],,,3h[8:3],
,,4,,
{8}5h[8:3],,,6h[8:3],
,,8,,
{8}1bV75[2:3]/8bV24[2:3],,,,
,,,,
{8},,,,
,,,,
{8}3/4-7[8:1],,1,,
2,2,12,,
{8}6/5-2[8:1],,8,,
7,7,87,,
{8}2/1-6[8:1],,4,,
3,3,43,,
{8}7/8-3[8:1],,5,,
6,6,56,,
{8}1/2^5[8:1],,7,,
6,7,78,,
{8}8/7^4[8:1],,2,,
3,2,12,,
{8}4,4,5,5,
,45,45,,
{16}45,,4,5,
4,,45,,
36,,27,,
18,,,,
{8}1,1s5[2:3],,,
,,,,
{8},,,,
,,,,
{8}8-4[2:1],,,,
,,,,
{8},,7,,
6,,5,,
{8}2,,,3-8[2:1],
,,,,
{8},,4,,
3,,2,,
{8}7,,,6,
5-2[2:4],,,,
{8},,,,
,,,,
{8},,,,
,,,,
{8},,,,
{16}5h[8:1],,4h[128:1],5h[128:1],
3h[128:1],6h[128:1],2h[128:1],7h[128:1],
{8}1-4[2:1],,,,
,,,,
{8},,1,,
2,,3,,
{8}4,,,8-5[2:1],
,,,,
{8},,,,
,,7,,
{8}6,,,3,
4p5[2:3],,,,
{8},,,,
,,,,
{8},,,,
,,,,
{16}4h[128:1],5h[128:1],2h[128:1],7h[128:1],
3h[128:1],6h[128:1],1h[128:1],8h[128:1],
3h[128:1],7h[128:1],1h[128:1],5h[128:1],
4h[128:1],8h[128:1],2h[128:1],6h[128:1],
{8}17,8,
1,8,
2,1,
2,1,
{8}82,1,
8,1,
7,8,
7,8,
{8}46,5,
4,5,
3,4,
3,4,
{8}53,4,
5,4,
6,5,
6,5,
{8}73,2,
8,1,
26,7,
1,8,
{8}62,3,
5,4,
37,6,
4,5,
{8}4/6h[4:1],4,{16}4,,6,5,
{8}6h[4:1],5,4,3,
{8}5/3h[4:1],5,{16}5,,3,4,
{8}3h[4:1],4,5,6,
{8}1/7h[4:1],1,{16}1,,7,8,
{8}7h[4:1],8,1,2,
{8}8/2h[4:1],8,{16}8,,2,1,
{8}2h[4:1],1,8,7,
{8}1h[4:1],8,{16}8,,8,1,
{8}8h[4:1],1,{16}1,,1,8,
{16}1,,8,1,
8,,1,8,
2,,8,1,
7,,1,8,
{8}2b-7[8:1]/7,,2/6b-3[8:1],,
6/4b-1[8:1],,4/5b-8[8:1],,
{8}5/1b-6[8:1],,1/7b-4[8:1],,
7/3b-8[8:1],,36,,
{16}17,,1,8,
1,,2,,
2,1,2,1,
28,,3,,
{16}35,,3,4,
3,,2,,
1,8,7,6,
5,,,,
{16}82,,8,1,
8,,7,,
7,8,7,8,
71,,6,,
{16}64,,6,5,
6,,7,,
8,1,2,3,
4,,,,
{16}4,5,4,5,
3,,7,,
8,1,8,1,
7,,3,,
{16}2,3,2,3,
1,,5,,
7,6,7,6,
8,,4,,
{16}38,,2,7,
1,,1,6,
8,,8,5,
7,,7,4,
{16}6,,6,3,
5,,4,5,
3,6,2,8,
4,6,1,7,
{16}28,,3,4,
3,,2,,
7,8,6,1,
28,,3,,
{16}35,,3,4,
2,,1,,
1,8,7,6,
53,,2,,
{16}1b,,,,
,,,,
4,6,4,6,
1,,1,,
{16}1b,,,1/3b,
,,1/6b,,
3,5,3,5,
3,5,3,5,
{16}1,7,1,7,
1,7,2,6,2,6,
2,6,
3,7,3,7,
{16}4,6,4,6,
4,6,5,7,5,7,
5,7,
4,8,4,8,
{16}3,7,2,6,
1,5,8,4,
1,5,2,6,
3,7,4,8,
{16}5,6,4,7,
3,8,2,1,
3,7,1,5,
2,6,4,8,
{16}4,8,4,8,
2,7,1,,
1h[8:1],,,,
28,,37,,
{16}4h[16:1],5,,6h[16:1],
5,,3h[16:1],5,
,7h[16:1],5,,
2h[16:1],5,,1h[16:1],
{16},5h[128:1],2h[128:1],6h[128:1],
1h[128:1],5h[128:1],2h[128:1],6h[128:1],
3h[128:1],7h[128:1],4h[128:1],8h[128:1],
3h[128:1],7h[128:1],4h[128:1],8h[128:1],
{16}5h[128:1],6h[128:1],1h[128:1],7h[128:1],
2h[128:1],6h[128:1],3h[128:1],5h[128:1],
4h[128:1],6h[128:1],3h[128:1],7h[128:1],
2h[128:1],8h[128:1],1,,
{16}1,1h[16:6],,,,
,,,,{8},,,,
,,,,{8},,,,
,,,,{8},,,,
,,,,
{1},,,,,,,,
