&title=混沌-The Chaos
&artist=猎豹游戏-Cheetah Mobile Games
&first=-0.12
&des=CH3COOL
&lv_4=2
&lv_7=招
&inote_4=(204)
{1},
{4}1,,,2,
{4},,3,,
{8},,1,,1,,1,,
{4}2,,,3,
{4},,4,,
{8},,1,,2,,1,,
{4}8,,,7,
{4},,6,,
{8},,8,,8,,8,,
{4}7,,,6,
{4},,5,,
{8},,8,,7,,8,,
{8}1,,,1,1,1,8,,
{8},2,2,2,1,,,2,
{8}2,2,3,,2,,1,,
{8}8,,,8,8,8,1,,
{8},7,7,7,8,,,7,
{8}7,7,6,,7,,8,,
{8}1,,,1,1,1,3,,
{8},2,2,2,1,,,1,
{8}1,1,2,,1,,8,,
{12}7,8,7,8,7,8,{12}7,8,7,{16}8,,,7,
{16},,8,,,1,,,2,,,,,,2,,
{8},,2,,,,,,
{8}1,1,1,1,1,1,1b,,
{8},,,,2,,,3,
{8}3,3,2,,1,,8,,
{8}6,,6,,6,,8b,,
{8},,,,3,,,,
{8},,1b,,,,,,
{8}7,7,7,7,7,7,8b,,
{8},,,,1,,,2,
{8}2,2,3,,2,,1,,
{8}7,,{24}7,,2,,2,,,,,,,,{8}1b,,
{8},,,,6h[8:6],,,,
{8},,8b,,,,,,
{8}1/3,,,2,2,2,4,,
{8},3,3,3,5,,,4,
{8}4,4,6,,7,,8,,
{8}1,,,1,1,1,3,,
{8},2,2,2,4,,,3,
{8}3,3,1,,3,,7,,
{8}8/6,,,7,7,7,5,,
{8},6,6,6,4,,,5,
{8}5,5,3,,2,,1,,
{8}8,,,7,8,8,7,,
{8},6,5,5,6,,,6,
{8}6,6,4,,3,,2,,
{8}1,1,1,1,1,1,1b,,
{8},,,,3h[4:1],,5h[8:2],,
{8}6h[4:1],,7<4[8:2],,,,,,
{8}4h[4:3],,,,,,1b,,
{8},,,,5h[4:3],,,,
{8},,7b,,,,,,
{8}8,8,8,8,8,8,8b,,
{8},,,,6h[4:1],,4h[4:1],,
{8}3h[4:1],,2>5[8:2],,,,,,
{8}6h[4:3],,,,,,8b,,
{8},,,,3h[8:6],,,1b,
{8},,4h[8:3],,,2,,,
{8}2,2,2,2,2,2,1b,,
{8},,,,2h[8:2],,4h[8:2],,
{8}5h[8:2],,6>3[4:1],,,,,,
{8}7h[4:3],,,,,,1b,,
{8},,,,3h[8:3],,,1b,
{8},,5h[8:3],,,7,,,
{8}8,8,8,8,8,8,8b,,
{8},,,,5h[8:2],,3h[8:2],,
{8}2h[8:2],,1>4[8:2],,,,,,
{8}1h[4:3],,,,,,3b,,
{8},,,,5-1[8:2],,,3b,
{8},,1-5[8:2],,,3b,,,
{8}2,,,1,1,1,3,,
{8},2,2,2,4,,,1,
{8}1,1,3,,2,,1,,
{8}8,,,7,7,7,5,,
{8},2,2,2,4,,,6,
{8}6,6,8,,1,,2,,
{8}3,,,1,1,1,3,,
{8},7,7,7,5,,,1,
{8}1,1,3,,2,,1,,
{8}8,,,7,7,7,5,,
{8},3,3,3,1,,,3,
{8}3,3,5,,6,,7,,
{8}8h[4:3],1,1,1,1,1,1b,,
{8},1,1,1,8,,,1,
{8}1,1,7,,8,,1,,
{8}2,,,1,1,1,2,,
{8},4,4,4,3h[8:3],,,2h[8:7],
{8},,1b,,1b,,1b,,,
&inote_7=(204)
{1},
{4}1,,,1,
{4},,1,,
{8},,1,,1,,1,,
{4}1,,,1,
{4},,1,,
{8},,1,,1,,1,,
{4}1,,,1,
{4},,1,,
{8},,1,,1,,1,,
{4}1,,,1,
{4},,1,,
{8},,1,,1,,1,,
{8}1,,,1,1,1,1,,
{8},1,1,1,1,,,1,
{8}1,1,1,,1,,1,,
{8}1,,,1,1,1,1,,
{8},1,1,1,1,,,1,
{8}1,1,1,,1,,1,,
{8}1,,,1,1,1,1,,
{8},1,1,1,1,,,1,
{8}1,1,1,,1,,1,,
{8}1,,,1,1,1,1,,
{8},1,,,1,,,1,
{8},,1,,,,,,
{8}1,1,1,1,1,1,1b,,
{8},,,,1,,,1,
{8}1,1,1,,1,,1,,
{8}1,,1,,1,,1b,,
{8},,,,1,,,,
{8},,1b,,,,,,
{8}1,1,1,1,1,1,1b,,
{8},,,,1,,,1,
{8}1,1,1,,1,,1,,
{8}1,,1,,1,,1b,,
{8},,,,1,,,,
{8},,1b,,,,,,
{8}1,,,1,1,1,1,,
{8},1,1,1,1,,,1,
{8}1,1,1,,1,,1,,
{8}1,,,1,1,1,1,,
{8},1,1,1,1,,,1,
{8}1,1,1,,1,,1,,
{8}1,,,1,1,1,1,,
{8},1,1,1,1,,,1,
{8}1,1,1,,1,,1,,
{8}1,,,1,1,1,1,,
{8},1,1,1,1,,,1,
{8}1,1,1,,1,,1,,
{8}1,1,1,1,1,1,1b,,
{8},,,,1,,,1,
{8},,1,,,,,,
{8}1,,,,,,1b,,
{8},,,,1,,,,
{8},,1b,,,,,,
{8}1,1,1,1,1,1,1b,,
{8},,,,1,,,1,
{8},,1,,,,,,
{8}1,,,,,,1b,,
{8},,,,1,,,1b,
{8},,1,,,1,,,
{8}1,1,1,1,1,1,1b,,
{8},,,,1,,,1,
{8},,1,,,,,,
{8}1,,,,,,1b,,
{8},,,,1,,,1b,
{8},,1,,,1,,,
{8}1,1,1,1,1,1,1b,,
{8},,,,1,,,1,
{8},,1,,,,,,
{8}1,,,,,,1b,,
{8},,,,1,,,1b,
{8},,1,,,1b,,,
{8}1,,,1,1,1,1,,
{8},1,1,1,1,,,1,
{8}1,1,1,,1,,1,,
{8}1,,,1,1,1,1,,
{8},1,1,1,1,,,1,
{8}1,1,1,,1,,1,,
{8}1,,,1,1,1,1,,
{8},1,1,1,1,,,1,
{8}1,1,1,,1,,1,,
{8}1,,,1,1,1,1,,
{8},1,1,1,1,,,1,
{8}1,1,1,,1,,1,,
{8}1,1,1,1,1,1,1b,,
{8},1,1,1,1,,,1,
{8}1,1,1,,1,,1,,
{8}1,,,1,1,1,1b,,
{8},1,1,1,1,,,1,
{8},,1b,,1b,,1b,,,
