&title=POP/STARS
&artist=K/DA; Madison Beer; i-dle; Jaira Burns
&first=0.11
&des=TheShy
&wholebpm=170
&clock_count=4
&lv_5=14
&inote_5=(170)
{1},
{8},,4h[4:1]/5h[8:1],,
5h[8:1],4h[2:1],B6,,,5h[2:1],B2,,,
4h[8:1],6h[8:1],3h[8:1],5,4,6,
3h[2:1],E1,C,E5,,6h[1:1],C,,,,,2xh[8:1],,2xh[8:1],,
3x/7x<3pp6[16:11],,,,2h[8:1],,1h[8:1],,
8x>4q5[16:11],,,,6h[8:1],,7h[8:1],,
8x^3[8:1],,1x-6[8:1],,
4x-8[8:1],,2xz6z2[16:9],,
7b,7b,7b,7b,8xb-4[8:1]b,,1x/8x,,
2xh[8:1]/6xh[8:1],,3-8[8:1],7,3/8-3-5-2[16:7],,
7h[4:1],,,6,6-4[10:1],,1/6,2,3pp1[16:6],6x,3/7,,
8xh[8:1],,2xh[8:1],,3/7-5[8:1],,
7x-4[8:1],,7x-3[8:1],,7x-2[8:1],,7x,,
6h[4:1],2x,1x-5[8:1],7,1/8-4V62[16:7],,
3h[4:1],,,4,4-1[8:1],,4/5,6x,7/8xqq5[16:6],1,
2/8x,,3h[8:1],,4h[8:1],,5-7[8:1],4,3-1[8:1],,
8-4[8:1],,1-5[8:1],,4x,,Cf,,3/4,2,1/8,,3/4<1[16:5],,
2,,C,,5xv2[8:1],,5/6,,7,,1/8,7,5/6,,1V35[16:5]/8,,
6,7,7qq6qq5[24:11]b,,E1,,E2,,2x,E6,E7/3-8[8:1],E8,3/8x-3-5-2[16:7],,
7h[4:1],,,6,6-3[8:1],,2/6,1x,1,4,2/5,,3h[4:1]/6,5,2,4xh[8:1],8h[8:1],
2x,7,,1/C,,5/C,,3/C,,7xpp2^7[4:7]b/Cf,,,,,,,,
4h[4:1],,,,E4,,3x,,2x-5q3-6[4:7],,,,,,,,
7h[4:1],,,,E8,,8xh[8:1],,1x>5qq1[4:7],,,,,,,,
6h[4:1],,,,B7,,,,8h[2:1],,,1,1x-6-3[2:1],,7x-4-8[2:1],,,,,,
B2,,1,,4/5,,,4,5^8[2:1],,3,,4,,,4,E6,,3,,
4/5,,,5,4^1[2:1]b,,6,,5,,,5,B2,,7,3,
4/6,,3/5,,4/7,,2/5,,6/8,,1/3,,4/5,,1/8,,
2/7,3,4/6,7,3/5,2,1/8,2x/7x,,,
3/6,4,3/6,5,2/7,1,8b-4[8:1]b/Cf,,1x-3[10:1]b/8,,
1/7x-5[10:1]b,,1x-5[8:1]b/7,,
1/8x-6[10:1]b,,2x-4[10:1]b/8,,
{16}2/Cf,,,,5x/6,,7,,4/5,,3,,2,4,2,,6,4,6,,
3>6[4:1]/5,,2,,1xh[8:1]/3,,,,2^5[6:1]b,,,,2x/1x,,,,
8xh[8:1],,,,1/7,,B8,,C/2^4[8:1]b,,B4,,
5xb>1[6:1]b,,,,8V24[6:1]b,,,,
5x<1[6:1]b,,,,2x<6[16:3]b,,,,3,,,,
1,,5,,2/4x,,3,,6,5,7,,1,8,2,,3/5qq1[16:6],,6,,
5/7h[8:1],,,,8^5[8:1]b,,,,1x/8x,,,,
2h[4:1],,,,3,2,4,2,5x-2[8:1]b,3x,6x,4x,7xb/E5f,,,,
1/8,,6,,3,4,2,,1/7,,6,,3,4,2,,1/5,,6,,
2,8,4,6,1-5[8:1]b,7,3,5,1b/Cf,,,,
3x/4x,,2x,,4,4,3,,2/5,,4x,,3,3,4,,2x/5x,,,,
8x,,1,1,1^4[8:1]b,1,1,1,1b^6[8:1],,,,1x/5xh[8:1],,,,
4x,,6,5,7-3[8:1],,3x,,7xV14[4:1],,,,5xh[8:1],,,,
E6,B6,B7,,E5,B4,B3,,8b,2,7,1,6,2,5,3,4x-6[8:1],,,,
1-5[8:1]/4,,,,1/6x-3[8:1],,,,6/8-4[8:1],,,,
{4}2x>2[4:7]/Cf,,,,,,,,5x-3-6-2-7-1[4:7],,,,,,,,
2xqq6qq2[4:7],,,,,,,,7x,
{16}3,4,3,4,2h[64:1],,,,3h[8:1]/4h[8:1],,,,
4/5,,5/6,,,,7h[4:1],,
{32}B5,B4,B3,B2,B1,,,,
{16}6,,5,,4xV68[8:7],,,,,,3h[8:1],,,,,,2,,,,
1<5[8:7],,,,,,2,,B2,,,,3,,,,
4>8[8:7],,,,,,5,,5,,,,6,,,,
7V13[8:7],,,,,,6,,B7,,,,5,,,,
6,,,,7,,,,8,,,,1,,,,
2/7,,,,3/6,,,,4/5,,,,1/8,,,,
3x/4x,,3/4,,2x/5x,,2/5,,
1x/E6,,2/E7,,3x/E8,,4/E1,,
5x/6x,,5/6,,4x/7x,,4/7,,
8x/E4,,7/E3,,6x/E2,,5/E1,,,,,,
,,,,,,,,,,,,,,,,
4/3,,2,,5/6,,7,,1/8^5[6:1],,2,,8bV24[16:3]b/Cf,,,,
{24}5x>1[16:3]b,6x,7x,,,,8xV24[16:3]b,7x,6x,,,,
5x>1[16:3]b,6x,7x,,,,8x,7x,6x,,,,
8x,7x,6x,5x,4x,3x,2xb/Cf,,,,,,
{16}3-7[8:1],,2,,1pp6[16:5]/3x,,,,
8h[8:1],,,,7h[8:1],,,,5xV74V25[2:1]b,,4,,3x,,,,
1-5[8:1],,,,1,,,,8h[8:1],,,,4,,E5,,5x/C,,E1,,
{24}2xb,3x,4x-8[12:1]b,,,,7x,6x,5x-1[12:1]b,,,,
2x,3x,4x-7[12:1]b,,,,7x,6x,5x-2[12:1]b,,,,
2x,3x,4xp1[16:5],,,,4x,,,,,,
{16}7xh[8:1],,,,6,,1,,2/5,,6,,
3/7^6^5^4^3^2^1^8^7[16:7],,4,,7,,,,,,,,Cf,,,,
{24}6h[4:1],,,,,,2,3,4,5,6,7,8-4[8:1]b,1,2,3,4,5,8b,,,,,,
{16}3/4x,,2,,3,4,3,,2/5,,1,,3,4,3,,5/6,,4,,
{24}3/8x,7,6,5,4,3,1x-5[8:1]b,8,7,6,5,4,1b,,,,,,
{16}3/4,,2,,6,5,7,,2/4,,1,,6,4,8,,Ch[4:1]f,,,,
7x,6,5,4,2xv5[8:1]b,8,3,6,2b<6[6:1]b,,,,2x/4,,3,,
2/5x,,3,4,3,,2/6,,7x-3[8:1]b,1x,7x,,2xh[8:1],,,,
{24}1x/8x,2,3,4,,,1/8,7,6,5,,,
{16}3b,5,4,6,5,7,2,8,
1q5[6:1]b,,,,7^5[8:1]*^5[8:1],,,,
2^4[8:1]b,,,,8p4[6:1]*p4[6:1],,,,Cf,
E
&inote_7=
