&title=鞭炮齐鸣
&artist=中国人民解放军军乐团
&first=0.43
&des=闪⭐光
&lv_7=0?
&inote_5=
&inote_7=(224)
{32},,,,E6/5hb[9:664],,B5,,B4,,,,,,,E4,,B3,,E3,,,,,,,B2,,E2,,B1,,B8,,,A8,,,,,,,E8,,,,B7,,,B6,,,,E6,,,,B5,,,,E5,,,,,A4,,D4,,A3,,,,,,,,,,,,,,,D3,,,A2,,,,,,,,D2,,,,A1,,,D1,,,,,,A8,,,,D8,,,A7,,,,D7,,A6,,,,,D6,,,,E6,,,,,B5,,E5,,B4,,,A4,,,,,,E4,,,,B3,,,,,E3,,,,B2,,E2,,,,B1,,,,,,E1,,,,B8,,,,E8,,,,,,,,A7,,B7,,D7,,E7,,,,B6,,E6,,D6,,,,,B5,,E5,,D5,,,,E4,,,,,,,A3,,,,B3,,,E3,,A2,,D2,,A1,,,,,B1,,,,,,,E1,,D1,,,,,
{48},,,,,,,,,,,,B8,,,,,,,E8,,,,,,,,,,A7,,,,,,,,,,,,D7,,E7,,,,,,,,,,,,,,,,
B6,,,,,,,A6,,,,,,D6,,,B5,,,,,,,,,,,,,,,,,,,,D5,,,,,,A4,E4,B3,B2,,,,,,,,,,,,,,,,,E2,,,B8,,,,,B1,,,,,E8,A7,D7,,,,,E6,,,B5,,,,E5,,,,,A4,E4,B3,B2,,,,,,,,,,,,,,,,,,,,,,,,,,,D2,,,,,,,,,,,A1,,,,,,,,,,E1,,,,,,B8,,,,E8,,,,,,,,,B7,,,A7,,,,,,,,E7,,,,,,,,,,,B6,,A6,,,,,,,,D6,E6,,,,,,,,,,,,,,,,,,,,,,,,,,,,,,,,
{48},,,B5,,,,,E5,,,,,,,,,B4,,E4,,,,,D4,,,,,,,,,B3,,E3,,,,,,,D3,,,,,,,,A2,,,,,E2,,,,,,,,,E1,,,,,,,,,,,,,,,,B8,,,,,,,,,,,,,A8,,,,,,,,,,,,,,,,,,,,,,,,,,,E7,A6,,,,,,,,E8,,,,,,,,B6,,,,B5,,,,,,,,,,,,D5,,,,,,A4,E4,B3,B2,,,,,,,,,,,,,,,B1,E1,,,,,,A8,,,,D8,,,,,,,,,,,A7,,,,,,,,,,,,,,,,,,,,,B7,B6,E6,,,,,,B5,,,,,,,,,,,,,,E5,,,,B4,,,,,,,B3,,,,,,,,,,,,,,A3,,,,,,,,,,D3,,A2,,,,,,,,,,,,,,,,,,,,,,D2,,,,,E2,,,,,B1,,,,,E1,,,,,D1,,,A8,,,,,,,,,,,,
{48}E8,,,,A7,,,,D7,,,,,A6,D6,B5,D5,,,,,,,,,,,,B4,,,,A4,,,,,,D4,A3,D3,,,,,,,,,,,B3,,,,B2,,,,,,,,,,,,,,,,,,A1,,,,,,,E1,,,,,,,D1,,,,,,,,,,,,,,,,E8,A7,D7,,,,,,,B6,,,,B5,,,,,,,E5,,,,,B4,,,,,B3,,,,,,E3,,,,,A2,,,,,,,,,,,,,,,,,B2,,,,,,,E2,A1,D1,,,,,,,A8,E8,B7,,,,E7,,,A6,,,D6,,,,,,,,,,B5,,,,,,E5,,,,,,,,,E4,A3,,,,,,,,,,,,E3,A2,,,,,,,,,,,,
{48},,,,,,,,E2,,,B1,,B8,,,,,,,,,,,E8,,,B7,,,,,E6,,,,,,,,,,,,,,E5,,,,,,,,,,,,,,,,,,E4,,,,,B3,,,,B2,,,,,,,,,,,E1,,,,,,,,,,,,,,,,,,,,,,,,E8,,,,,,,,,,A7,,,,,,,D7,,,,,,,E7,A6,D6,,,,,,,,B5,,,,B4,,,,,,,,,D5,,,,,,,,,,,,,,A4,,,,,,,,,,B3,,,,E3,,,,,,,A2,,,D2,,,,,,,,,,,,,,B1,,,,,B8,,,,,,,,,,,,A8,E8,B7,E7,,,,,,,,,,E6,,,,,,,,,,,,,B5,,,E5,,,,,,,B4,,,,E4,,,,,,,,,B3,,,E3,,,,,,,,,,,,E2,,,B1,,,,,,,E1,,,,,B8,B7,E7,,,,,,,,,B6,,,,,B5,,,,,,,,,,E5,,,,,,A4,E4,B3,B2,,,,,,,,,,,,,,E2,B1,,,,,,,,A8,,,,,,,,,,,,,E8,,,,,A7,,,,,,,E7,A6,D6,,,,,,,,B5,,,,,,,,,,,,,,E5,,,,,,A4,,,,,,,,,,,,,E4,,,,A3,,,,,,,,,B3,,,,,,,,,,,,,,E3,,,,,,A2,,,D2,,,,,,,,,,A1,,,,,,,,,,,E1,,,,B8,,,,B7,,,,,,,,,,E7,,,,,,,,,A6,,,,,,D6,,,,,,,,E6,,,,B5,,,,,,,,B4,,,,,,,,,,,,,E4,,,,,A3,,,,,,,,,,,,,,,E3,,,,,A2,,,E2,,,,,A1,E1,B8,,,,,,,,,,,,,,E8,,,,,A7,,,E7,,,,,A6,E6,B5,,,,,,,,,,,,B4,,,,,,,,B3,,,,,,,,,,E3,,,A2,,,,,E2,,,,,A1,,,,,E1,,,,,,A8,,,,,,,E8,,,A7,E7,B6,,,,,,,,,,,B5,,,,,,,,,,,,,,,,A4,,,,,,,,,,,,E4,,,,A3,,,E3,,B2,,,,B1,,,,,,,,B8,,,E8,,,A7,,,,D7,,,,,A6,,,E6,,,B5,E5,A4,,,
{48},,,,,,,,,,,,D4,,,,,E4,,,,,B3,,,,,,E3,B2,B1,E1,,,,,,,,,,A8,,,,E8,,,,B7,,,,,,E7,,,,,,,,,,,,,,,A6,,,,,,,,,,,E6,,,,,B5,,E5,,B4,,,,,E4,,,B3,,,,,,,,,,,E3,,,,,A2,,,,,E2,,,,A1,D1,A8,,,,,,,,,,,,,,E8,,B7,,,,,,,,,,,,,,,,E7,,,,B6,,,,B5,,,,,,,,,E5,,,,,,A4,,,,,,,D4,,,,A3,,,,,,,,,E3,,,A2,,,,,,D2,,,,A1,E1,B8,B7,,,,,,,,,,,,,,,,,,,E7,,,,,A6,,,D6,,,,,,B5,,,E5,,,A4,E4,B3,B2,,,,,,B1,,,B8,,,,,,,,,,B7,,,,,,,B6,,,,,,,,,,,,,,,,,,,B5,,,,,,,,,,,,D5,E5,,,B4,,,,,B3,,,,,,,,,,,,,E3,,,,,,,,E2,,,,,D2,,,,,,A1,E1,B8,,,,,,E8,,,,,,,,,A7,E7,,,,,,,,,,,B6,,,,,,E6,,,,B5,,,,,D5,,,,,,,,,A4,,,,,,,,,,,E4,B3,B2,,,,,,,E2,,,,,,,,A1,,,,,,E1,B8,,,,,,,,,B7,,,,,E7,,,,,,A6,D6,B5,D5,,,,,,,,,,,,,
{48}A4,,,D4,,,A3,,,D3,,,A2,,,,,,,,,E2,,,,,,,,,E1,,,,,,,,,,,,,,,,,B8,,,,E8,,,,A7,,,,D7,,,,,,,,,,,B6,E6,B5,,,,,,,,,,B5,E5,A4,,,,,,,B3,,,,,,,,,,,,,,,,,,D3,E3,,,,,,,,,,,,,,,,,,,A2,B2,B1,,,,,,,,,,,,,,,,,A1,E1,,,,,,,,,,,,,,,,,,,A8,,E8,,B7,,,,,,,,,,,,,,,E7,B6,,,,,,E6,B5,E5,,,,,,,,,,,,,,,,A4,D4,,,,E4,,,,,A3,,,,,E3,,,,A2,,,,E2,,,,,,,,B1,,,,,,,,,E1,,,,,,,,,,,,,,,A8,,,E8,,,,,B7,,,,B6,,,,,,,,,A6,,E6,,,,,,,,,B5,,,,,,,,,,,,,,,E5,,B4,,,,,E4,,,,,B3,,,,E3,,,,,,A2,,,,E2,A1,D1,,,,,,,,,,,,,A8,,,,E8,,,,,,B7,,,,,,,,,,,,,,,E7,B6,B5,,,,,,,,E5,,,,,A4,E4,B3,B2,,,,,,,,,,,,,,,,,B1,,,,,,,,E1,,,,,,A8,E8,B7,,,,,,,,E7,,,,,B6,,,,,,E6,,,,,B5,E5,A4,,,,,,,,,,,,,,,,E4,,,,,,,,A3,,,,,D3,,,A2,,,,,,,,,,E2,,,,,,B1,,,,,,,,,,,E1,,,,,,,,,,,D1,,,,,,,,,,,,,,A8,,,,,,,,,,,,,E8,,,,D8,,,,,,,,,,,,,,,,,,,,,,,,,A7,,,E7,,,,,,,,,,,,,,,B6,,,,,,B5,,,,E5,B4,B3,,,,,,,,,,,,,,,A3,,,,,,,,,,,E3,,,,,,,,E2,,,,,,,,,,,,,,,,,,,,,E1,,,,A8,,,D8,,,,,,,,,,,,,,A7,,,,,,,,,,,,,,,,E7,,,,,B6,,,,,,,E6,,,,,,,,,,,B5,B4,E4,A3,,,,,,,,,,,,,,,,,,,,B3,,,,,,B2,,,E2,,,,,,,,,,,,B1,,,,,B8,,,,,,E8,A7,D7,,,,,,,,,,,,,,A6,,,,,,,,,,,,,,,,,,B5,,,,,D5,,,,,,,,,,,,,,,,E5,,,,,,,,,E4,,,,,,,,E3,D3,,,,,,,E2,,,,,,,,,,,,,,,,,,,,,,,,,,,,,,E1,,,,,,,,,,,A8,,,,E8,,,,,,,,,,,A7,,,,,E7,,,,,,,,,,,,,,,,,,,,,,,A6,,,,D6,,,,,,,,,E6,,,,,,,,,,,,,B5,,,E5,,,,,,,,,A4,E4,B3,B2,,,,,,,E2,,,,,,B1,,,,,,,,,A1,,,E1,,,,,,,,,A8,E8,B7,B6,,,,,,,A4,E4,B3,B2,,,,,,,E1,,,,,,C,,,E5,,,,,,,,,,,,,,,,,,,,,
{48}5p1[267#12:1]*q1[267#12:1],,,,,,,,,,,,,A8/E1/B1/E2/A2/D2/A1/D1,,,,,,,
