&title=The Everlasting Calamity That Shifts The Time - Space Continuum On A Nanosecondal
&artist=Reek
&first=0
&des=HL
&lv_5=15+
&inote_5=(286.49)
{1},,
{8}4,,5,4,,4,5,,5,3,,3,4,,45,,
{8}5,,6,5,,5,6,,6,4,,4,5,,56,,
{8}3,,4,3,,3,4,,4,2,,2,3,,34,,
{8}4,5,4,5,3,5,3,5,3,6,3,6,4,6,4,6,
{8}45,,3,5,,5,4,,4,6,,6,4,5,4,,
{8}56,,4,6,,6,5,,5,7,,7,5,6,5,,
{8}34,,2,4,,4,3,,{16}3,4,3,,5,4,5,,{8}3,4,3,4,
{8}2-8b[16:1]/5-7b[16:1],,,,6-8b[16:1]/4-7b[16:1],,,,3-1b[16:1]/5-1b[16:1],,,,
7-1b[16:1]/8-6b[16:1],,,,
{8}3,3,5,5,4,4,6,6,2-4[16:1],,6-8[16:1],,2-7[16:1],,6-3[16:1],,
{8}1,1,7,7,2,2,8,8,3-1[16:1],,7-5[16:1],,3-6[16:1],,7-2[16:1],,
{8}4,4,5,5,6,6,7,7,1,1,3,3,5,5,7,7,1-3[16:1],1,8-6[16:1],8,1-4[16:1],1,8-5[16:1],8,
{8}1h[2:1],,,,,,,,
{16}8/1,7,6,,12,3,4,,18,7,6,,,,2,3,4,,6,5,4,,2,3,4,,,,
{16}1/8,2,3,,78,6,5,,18,2,3,,,,6,5,4,,2,3,4,,6,5,4,,,,
{16}8,7,6,5,1,2,3,4,8,7,6,5,1,2,3,4,{32}8,7,6,5,4,3,2,1,8,7,6,5,4,3,2,1,8,7,6,5,
{8}4pp8b[8:3],,,,,,,2,3,4,5,{16}1,2,3,4,5,6,7,,,,,
(286.5)
{16}8,7,6,5,2,3,4,5,7,6,5,4,3,4,5,6,8,7,6,5,8,1,2,3,4-2[8:1]/5-7[8:1],,45,,45,,,,
{16}1,2,3,4,7,6,5,4,2,3,4,5,6,5,4,3,1,2,3,,45,,45,,
(286)
{8}45,,2,3,47,6h[4:1],,,{16}3,4,3,4,,6,5,6,5,,
{8}2,3,47,6,{16}4,5,4,5,36,,45,,{8},,45,4,45,4,45,36,27,
(286.49)
{16}18,,,,7,6,5,4,8,7,6,5,1,8,7,6,2,1,8,7,3,2,1,8,4<7[8:1],,3,,2,,,,
{16}1,2,3,4,8,1,2,3,7,8,1,2,6,7,8,1,E2,C,E6f,,,,,,
(285)
{4}5-8-3[4:1],,2,{8}4,5,4,5,{4}4>7[4:1],5,5w1[8:1],,1x,{8}1,8,1,8,2,7,{96},,,,,,,,,,,
(286.5)
{4}3-6[4:1],6-1[4:1],1-4[4:1],4<7[4:1],7>2[4:1],2>5[4:1],5p1[4:1],1p5[4:1],5>1[4:1],
{4}1<5[4:1],,,
{8}3,4,3,4,3,4,2,4,3,4,3,4,2,4,3,4,1,6,3,4,1,6,
(286.499)
{16}1-6[8:1]/2-6[8:1],3,4,5,,,,,5x,4,3,,8-3[8:1]/7-3[8:1],6,5,4,,,,,4x,5,6,,
{16}1-4[8:1]/8-4[8:1],2,3,4,,,,,5x,6,7,,1-5[8:1]/8-5[8:1],2,3,4,,,,,7h[8:1],,,,{96},,,,
(286.5)
{8}1,1,7,7,2,2,8,8,1,2,3,4,5xb>2[8:1],6,7,8,1,2x,3,4,5,6,7xb<4[8:1],8,1,1,6,6,3,3,7,7,
{4}1b<5q1b[4:27]*>5p1[4:27],,,,,,,,,,,,,,,,,,,,,,,,,,,,,,,{96},,,,,,,,,,,,,,,,,,,
(143.250)
{16}B1,,,A5,D6,A6,D7,A7,,B8,,E2,,B3,,E1,,E7,,,,,A3,D3,A2,D2,A1,,,,B7,,B5,,
{16},,E2,B2,B3,E4,,,A6,B6,D7,B7,,,,E1,B7,E3,B6/C,,,E4,B3,B2,E2,A1,,B7,,E1,,E3,
{16},E7/B7,,E1/B1,,E3/B3,,B5/E5,,A7/A8,,,
{1}Chf[8:13],
{8},,,,,{96},,,{16}1b,,,,2,,3,,,,,,,,,,17,,,18,,,12,,,,,,,,,,
{16}23,,,25,,,12,,,,,,,,,,75,,,84,,,76,,,,,,
{16}4,5,4,5,26,2,8,8,3,3,7,7,1,1,18,8,7,7,6,6,5,5,4,4,3,15,,,6x,8x/4x,,
{48}2x/4x,,,,7x/5x,,,,1x/3x,,,,8x/6x,,,Chf[1:1],,,,,,,,,,,,{8},,,,,,,,
{96},,,,,,,,,,,{128},
(210)
{16}7b-2[8:1]/3b-6[8:1],,,,37,,,8<5[8:1],,8>3[8:1],,,,,,,4-8[8:1],,,,4,,,,
{16}1>4[8:1],,1<6[8:1],,,,,,5-1[8:1],,,,5b,,,8-4[8:1],,2-6[8:1],,8<5[8:1],,2,,8>3[8:1],,,,,,,,,5,,26,,4,,37,,
{16}2-8[8:1]/8,,,,2,,7,6x,5x-8[8:1],,,,5b,,,
{8}2-6[8:1],1,2-4[8:1],1,2-6[8:1],1,2/C,,{96},,,,,,,
(210.001)
{16}7b-2[8:1]/3b-6[8:1],,,,37,,,,5<8[8:1],,5>2[8:1],,,,,,1-5[8:1],,,,1,,,,
{16}4>1[8:1],,4<7[8:1],,,,,,8-4[8:1],,,,8b,,,5<7[8:1],,3>1[8:1],,5-1[8:1],,3-7[8:1],,5,,,,,8,,1,,8,,1,,3,,5,,2/6<1[8:1],,,,,3,4,2x/5<8[8:1],,,,,2,3,1x/4,5,6,7,8,1/4,3,2,1,8,7,6,5h[8:1]/4h[8:1],,,,,
(210)
{8}1-3[8:1]/8,1,7,6,5,6,7-1[8:1],7,78,,
{16}2,,34,,5,,6,,8,1,2,3,4-1[8:1],,4,,7b,,7b,,
{16}8,1,8,1,8x/1x,8x/1x,8x/1x,8x/1x,1xs5[8:1]/8xz4[8:1],,,,,,,,3x,1x,3x,1x,3x,1x,3x,1x,3x,1x,3x,1x,3x,1x,3x<7[8:1],,,8b,,,8b,,
{16}1,2,3,6,5,4,2,3,4,,7b,,,7b,4,3,2,16,8,7,6,5/1,,,3,4,3,
{16}4-7[16:1],,,1-5[16:1],,,6-2[16:1],,,3q7[16:1],,,8q5[8:1],,,{1}2h[4:10],
{96},,,
(286.5)
{16}B8,B7,B6,B5,B4,B3,B2,B1,B8,B7,B6,B5,B4,B3,B2,B1,E1,E8,E7,E6,E5,E4,E3,E2,E1,E8,E7,E6,E5,E4,E3,E2,Chf[4:5]/E1,,,,,,,,,,,,,,,,,,,,
{8}1,2,3,4,5,6,7,8b-2[8:1],,7,6,5,,,3-5[8:1]/4,,6,7,8,,,
{16}2h[4:1],,8,1,3,4,5,62,,,{8}1h[16:1],5,1h[16:1],5,1h[16:1],6,1h[16:1],6,,
(180)
{16}7,8,7,1,7,2,7,3,7,4,7,5,7,6,7,8,
{16}7,1,7,2,6,2,5,2,4,2,3,2,1,2,8,2,7,2,6,15,,15,,1h[16:1]/5h[16:1],,,{96},,,
(286.5)
{8}2-4[8:1],,2-6[8:1],,,,7-3[8:1],8,7,2-6[8:1],1,2,7,,
{8}2/4,3,4,5,{16}4/6,,,,78,,,78,,,78,,,78,,,7-5[8:1]/8-5[8:1],,,78,,,,,,,{96},
(251)
{16}2,3,2,3,2,3,2,3,2,3,2,3,2,3,2,3,
{16}2,3,2,3,2,3,2,3,2,3,2,3,2,3,2,3,
{16}2,3,2,3,2,3,2,3,2,,
(224)
{4}45,18,45,18,
(286.5)
{8}26,,5,,34,,16,16,,8,,17,26,35,4,,37,,28,,1,1,,24,,5,46,37,28,,
{16}1,2,3,4,{8}5,,26,26,,48,,34,45,56,{16}45,,,45,,,45,,,45,,,45,,
{8}3-6[8:1],3,7-2[8:1],7,3,3,7,Ch[4:15],,,,,,,,,,,,,,,,,,,,,,,,,,,,,,,,
{16}1,8,7,6,5,,8,1,2,3,4,,2,1,8,7,6,,7,8,1,2,3,,
{16}5,4,5,4,5,4,5,,3,2,1,8,7,,5,6,7,8,1,,5,4,3,2,1,,3,4,5,6,7,,
{16}1,8,1,8,1,8,1,,
{16}2,6,2,6,2,,5,3,5,3,5,,4,6,4,6,4,,7,5,7,5,7,,
{16}4,3,2,18,7,6,5,
{32}1h,2h,3h,4h,,,,,,,,,7h,6h,5h,4h
,,,,,,,,,8/2h,3h,4h,5h,,,,,,,,,,2/8h,7h,6h,5h,,,,,,,,,,1bh/2bh,8h/3h,7h/4h,6h/5h,
,,,,,,,,,,,
{8}7bq4>5q2b[1:3],,,,,,,,,,,,,,,,,,,,,,,,,,,,,,,,
{32}1x,2x,3x,4x,5x,6x,7x,8x,1x,2x,3x,4x,5x,6x,7x,8x,1x,2x,3x,4x,5x,6x,7x,8x,1x,2x,3x,4x,5x,6x,7x,8x,1x,2x,3x,4x,5x,6x,7x,8x,1x,2x,3x,4x,5x,6x,7x,8x,1x,2x,3x,4x,5x,6x,7x,8x,1x,2x,3x,4x,5x,6x,7x,8xs4b[8:1],,,,,,,,,,,,,,,,,,,,,,,,,,,,,,,,,E
