&title=DOKI DOKI SCARY
&artist=Poppin'Party
&first=0.07
&des=Chieko
&des_5=Chieko
&lv_5=13+
&inote_5=(142){4},,,4/B8f/A8/C,
,6/B2f/A2/C,{8},,1/E6f/B5/B6/A5/A6/D6,1,
{4}1-5[8:1],1/7/Cf/B1/B5,6,{12}5/4,5/4,5/4,
5/4,4/5,4/5,3/6h[4:1],,,{4}Ch[4:1],E1f/B8/B1,
Ch[4:1],E1f/A8/B8/D1/B1/A1,E8/B7/B8/Ch[8:1],E6/B5/B6/Ch[8:1],
B8/B1/E1/Ch[8:1],B5/B4/E5/Cfh[4:1],{8},,5h[16:1],5h[16:1],
4/6h[4:1],3,{16}2h[8:1],,,2,8,3,5,2h[16:3],{8}6,8,
7/1V38[4:1],6,{4}1/5V74[4:1],5,{8}1h[16:1],1h[16:1],
8/2h[4:1],7,{16}6h[8:1],,,6,1-3[8:1],7,8,6h[16:3],{4}1-7[8:1],
1/6h[8:1],{16}8,7,2,1,4,5,3,6,{8}3h[16:1],3h[16:1],
4/2h[4:1],5,{16}6h[8:1],,,6,3,7,1,6h[16:3],{8}2,4,
5/7V16[4:1],4,{4}7/3V52[4:1],3,{8}6h[16:1],6h[16:1],
5/7h[4:1],4,{16}3h[8:1],,,3,6,2,8,3h[16:7],{8}7b,7b,
7b,7b,3h[96:1]/7h[96:1],2h[96:1]/6h[96:1],5h[96:1]/1h[96:1],8h[96:1]/4h[96:1],{16}1/5,,,2,
{8}1,3,{16}4/6h[16:3],,,5,{8}7,2,{16}5/3h[16:3],,,4,
{8}2,6h[4:1],8-4[8:1]*-3[8:1],8,{4}8b,{16}5/2,,,7,
{8}8,6,{16}5/3h[16:3],,,4,{8}2,7,{16}4/6h[16:3],,,5,
{8}7,4-8[8:1],6h[8:1],4b-2[8:1],6h[8:1],4b,7b,{16}3,4,
{8}2h[8:1],{16}8,1,7h[16:3],,,8,{8}6,2,6/4,3,
8/2,7,2/5,6/3,{4}4h[8:1]/7V53[4:1],7/1-5-7[8:3]*-5-3[8:3],
{2}1,{16}2-6[8:1],8,3,7,{4}2b,
7h[4:1]/5h[8:1],{16}5,6,4,5,3,4,2,3,{12}1b,,2,
{6}4h[6:1],{12}3,5/2,6,7,4/8,3,2,1/4,5,6,
1/7,2,3,4/1v6b[8:1]*v4b[8:1],,,{4}1b,{12}5/3,2,6,
7/1,2,8,3/6,4,7,{6}8/5,{12}7,6/4,3,3,
5/2,6,6,3>8b[8:1]/7<4b[8:1],,,{4}3b/7b,{8}5x/1x,5x/1x,
3x/4x,4x/3x-7[8:1],{4}3x/4x-8[8:1],{8},1b,,1x/2x,
4x/3x,4x/3x,4x/3x,{16}2,5,1-3[8:1],6,8,7,{8}1b-7[8:1],6h[8:1],
1,6h[8:1],1h[8:1],7,1h[8:1]/6pp5[4:1],7,6b/2,2,
{16}3,3,{8}4,6/5,{16}3,8,2-6[8:1],7,1s5[8:3],6,{4}2,
,1,8/1,{8}8b/7b,1/5,
2V47[4:1],7,{16}2,,,8,{8}8V26[4:1],5,4/8,3,
2x,{16}7pp4[16:5],7,,,{8}E1/B8/B1,{4}B2/B3/E3,{16}1-3v4[16:5],,,7,
{8}1V74[4:1],8,{16}1,,,3,,,{8}2h[8:1],{16}4-7[8:1],4,1,1,
{8}4,{16}3qq5[16:5],3,,,{8}B1/E2/B2,{4}B7/B6/E7,{16}8b-6[8:1],,,1,
{8}8V25[4:1],2V48[4:1],{4}8,{16},,,,7/1-6[8:1],,,2,
{8}1,{16}3pp6[16:5],3,,,{8}B5/E5/B4,{4}B8/B7/E8,{12}8b<5[8:1],,3,
8>3[8:1],2,1,8,{48},,,,,,,,{16}4-1[8:1]/5-8[8:1],,,5/4,{4}5/4,
7-4[8:1]/3-8[8:1],3/7,{32}5x/1x-5[8:1],6,7,8,1,2,3,4,{8}5bx/1bx-4[8:1],7h[8:1],
1V36[4:1],7-2[8:1],{4}1,{8},5/1,8-5[8:1],3h[8:1],
8V25[4:1],2-7[8:1],{4}8,{8},6,{16}3,4,{8}2,
{16}7,5,{8}8,{16}2,1,2,1,3,7,{8}4,{16}6-2[8:1],5,6,7,
{8}6,{16}3,3h[16:9],{4}8x-4[8:1],8b-5[8:1],{8}8-3[8:1],2h[8:1],
8V63[4:1],2-7[8:1],{4}8,{8},4/8,5-8[8:1],2h[8:1],
5V38[4:1],3-6[8:1],{4}5,{8},7,{12}4/5,4/5,4/5,
4/5,4/5,4/5,3/6h[4:1],,,{4}2-5[8:1],2b/E1f/A8/B8/D1/A1/B1,
6-1[8:1],6b/E3f/B2/A2/D3/A3/B3,1-6[8:1]/4v1[8:1],4b/1b`Cf,
1-6[8:1]/6qq3[8:3],6/1,8b-4[16:25],{8}A1,A7,
E2,E7,B2,B6,B3,B5,A2,A6,
A5,A3,{32}B7,C,{16}B3,,,,,,,{4}7/5h[4:1],
4h[4:1],{16}3<6[8:1],3,4,4,{4}3,8/7h[4:1],
6h[4:1],{16}5-8[8:1],5,4,4,{4}5,{8}1b/2h[4:1],3,
4h[4:1],3,{16}3<6[8:1],3,4,4,{8}3,8,7x/6x,8,
{16}2,1,{8}3,{16}6,6,4,4,,8,1,6,{8}5b-1[8:1],4,
5/6,7,{16}2-5[8:1],2,4,4,{4}2,{8}3/4-8[8:1],5,
4/3,2,{16}7>2[8:1],7,5,5,{4}7,{8}3/1-5[8:1],2,
7/1,6,{16}4>1[8:1],4,5,5,{8}4,6,2/7,8<4[16:3],
{16}4,4q8[16:3],{8}8,3,2,{16}1,1,{8}7,4/3,5/2,
4/3,7/1,4/6,7/5,1/3>7[4:1],5/4,{4}5-1>3[16:7]*-1<7[16:7],
E
