&title=ray (超かぐや姫! Version)
&artist=かぐや(cv.夏吉ゆうこ)/月見ヤチヨ(cv.早見沙織)
&first=0.298
&des=IroP
&lv_5=13
&des_5=IroP
&inote_5=
(132){4}2>5[4:1],5q2[4:1],{2}2>5b[4:1],
{4}7<4[4:1],4p7[4:1],{2}7<4b[4:1],
{4}3>8[4:1],8<5[4:1],{2}5>2[4:1]*V71[4:1],
{8},1<6[8:1]/4>1[8:1],,,,8>3b[8:1]/5<8b[8:1],,,{4}A3f/A8f,
3-8[8:1]/7<4[8:1],{2}3-6[8:1],
{4}6-1[8:1]/2>5[8:1],6-3[8:1],{2}2-6b[8:1],
{4}7p5[4:1],5>7[4:1],,B2/E3/B3,
2q4[4:1],4<2[4:1],,B7/E7/B6,
6<8[8:1]/5q1[8:1],A6/D6/A5,3>1[8:1]/4p8[8:1],A4/D4/A3,
7<4[8:1]/2v5[8:1],D8/D2,3>8[8:1]/6v1[8:1],D6/D4,
7-5-7[4:1],2-4-2[4:1],,8<1[4:1],
1s5<1b[2:1],Ch[2:1],{8},,,,3-8[8:1],
6-3[8:1],{4}3<1b[4:1],{8},,,2V46[4:1],
,6-2[8:1],,,,8x<5[8:1]*>3[8:1],,8s4[4:1]*z4[4:1],
,,,,,3-1[8:1],{4}1-5[8:1],
{8}6-8[8:1],8-4[8:1],,,,,{4}2>6[4:1],
{2}6qq1[4:1]*<8[8:1],{4}8x-4[8:1],8V61-5b[8:3],
{2}8>4[8:1],6<1-5[4:1]/5>2[8:1],
{4}4-7[8:1],6-1[8:1],8-3[8:1],2-5[8:1],
{2}4qq4pp4b[2:1],6<4[4:1],
{8}1x-5[8:1],5x-1[8:1],,,{4}7-3[8:1],2V83[4:1],
{2}7V16[4:1],{4}5w1b[8:1],A5f,
4V68v1V35b[8:3],,,8-6[8:1]/1-5[8:1],
,8-4[8:1]/1-3[8:1],,7v8[8:1]/2v1[8:1],
{2}2-5[8:1]/7-4[8:1],{8}7x-2[8:1],2-5[8:1],,,3x-8[8:1],
8-5[8:1],,,{2}4>1[8:1]*p8[8:1],
{8}5<8[8:1],,,1pp5[4:1],,,,6-8v1-3[8:3],
,,{4}3<6b[4:1],,C,
{64}1>8[4:5]/8<1[4:5],E8/E2,B7/B2,B6/B3,{16}E6/E4,{1},{4},,{8},{4}E7/E3,
{2}Ch[4:1]/4x>1[16:3],Ch[4:1]/4x>1[16:3]*>1[16:3],
Ch[4:1]/4x>1b[16:3],{4}8w4[8:1],8-6[8:1]*-2[8:1],
A8/E8/B8/E1,3pp3b[4:1]/8v7b[4:1],{2}B8/B3,
{8}2>4[8:1],4<6[8:1],6<8[8:1],8>2[8:1],,,,,{4}3-1[8:1]*-7[8:1],
3-5[8:1],{2}6-8[8:1]*-2[8:1],
{8}4>1b[8:1],5<8b[8:1],A4f,A5f,2>7[16:3],,,8<2[16:3],
,1>7[16:3],,,,,{4}8-3[8:1]/1-3[8:1],
8qq8[4:1],8qq1>5b[8:3],,,2-5[8:1]/6-1[8:1],
2-6[8:1]/6-2[8:1],{8},,8<5[8:1],5-1[8:1],
{2}1>4[8:1],1qq1[8:1]*pp1[8:1],
{4}7<5[8:1],7p3[8:1],2q6[8:1],2>4[8:1],
{2}6pp4[4:1],{4}1-5[8:1],1V35[4:1]/7-1[8:1],
,7>6[4:1],{8},,,6-3[8:1],
{32},,,,7-2[8:1],E6,E5,E4,,,,,,E8,E1,E2,{4}5>8b[8:1],B6/E7f/B7,
{8}7-4[8:1],4-7[8:1],{4}7>3[4:1]*>3[4:1],{8}3x<6[8:1]*<6[8:1],,,7-1b[8:1],
,7-5[8:1],{4}4-8[8:1],{8},,1>5[4:1],A6,
5<1[4:1],C,1-4[8:1]*-6[8:1],E8,,,7p5[8:3],3p1[4:1],
,,,,{4}8x>4[8:1]/4x<8[8:1],{32}A8/A4,A1/A5,A2/A6,A3/A7,,,,,{8}3>8b[8:1],
8q4b[8:1],,,{2}6<1[8:1]*>3[8:1],
{4}5-8b[8:1],A5f,{2}1V35[8:1]*V75[8:1],
{8}7q6[8:1],4>1[8:1],,,{2}8>5b[8:1],
{4}8<1[2:1]/1>8[2:1],{32}A8/A1,A7/A2,A6/A3,A5/A4,{4},,{16},,{8}2q1[4:1],
C,1p3[4:1],E6,,,{4}C,
{8}6q5[4:1],C,5<8[8:1],E2,,,{4}2pp4[4:1]/7qq5[4:1],
{8},,,3<8[8:3]/6>1[8:3],,,,,,,{4}A8/D1f/A1,
{8},4>5b[8:3],{4}5<4[4:1],
,,{2}4w8b[4:1]/5w1b[4:1],
{4},7V58[4:1]/2V41[4:1],,D1/A8/A1/E1f,
6<3[4:1],3>6[4:1],,,3>6[4:1],
6<3[4:1],{8},,,,5<8[8:1],
8>3[8:1]*>3[8:1],{4}3<6b[8:1],,1-4[8:1]*-3<4[8:1],
1-6[8:1]*-7<6[8:1],1>8[4:1],,5-3[8:1],
5-7[8:1],5-2[8:1],5-8[8:1],5w1[8:1],
,1xw5[8:1],,3-7[8:1],
3>6b[4:1],6<3b[4:1],,,6<3b[4:1],
3>6b[4:1],,1-5b[8:1],
{1}1>8[4:11]*>2[128:51]*>3[128:99]*>4[128:151]*>4[64:75]*>5[16:25]*>6[32:63]*>7[128:301],
E
