&title=Golden Palms
&artist=Dirty Androids
&first=0.01
&des=Tail_R
&lv_5=14
&lv_7=藏
&inote_5=(130)
{1},
{24}4h[8:1]/3h[8:1],,,,,3,4,,,2,,,1h[4:1]/8,,,,,,E3/B3,,,,,,
{24}4h[8:1]/3h[8:1],,,,,3,4,,,2,,,8h[4:1]/1,,,6x,,,2x,,,,,,
{24}4h[8:1]/3h[8:1],,,,,3,4,,,2,,,1h[4:1]/8,,,,,,E3/B3,,,,,,
{24}4h[8:1]/3h[8:1],,,,,3,4,,,2,,,7h[4:1]/8,,,5x,,,2x,,,,,,
{24}3h[8:1]/5h[8:1],,,,,3,5,,,2/6,,,1h[4:1]/7,,,7,,,E3/B3,,,,,,
{24}3h[8:1]/5h[8:1],,,,,3,5,,,2/6,,,8h[4:1]/1,,,5x,,,3x,,,,,,
{24}3h[8:1]/5h[8:1],,,,,3,5,,,2/6,,,1h[4:1]/7,,,7,,,E3/B3,,,,,,
{24}3b^8[8:1]/5b^8[8:1],,,,,,,,,,,,2h[8:1]/1,,,4,,,7h[8:1]/8,,,5,,,
{24}4-2[32:3]/6,,,7,,,4b/6,,,8,,8,1h[4:1],,,3,,,4h[4:1],,,2,,,
{24}3hx[8:1],,,1h[8:1],,,8h[8:1],,,6h[8:1],,,3-5[32:3],,8,1,,,3x,,,6,,,
{24}7^1[32:3]/5,,,6,,,7b/5,,,4,,4,1h[4:1],,,2,,,4h[4:1],,,3,,,
{24}1hx[8:1],,,3h[8:1],,,4h[8:1],,,6h[8:1],,,7v5[8:1],,,4^1[8:1],,,3,,,,,,
{24}7-5[32:3],,,8,,,7b/1,,,2,,2,4h[4:1],,,3,,,2h[4:1],,,1,,,
{24}4hx[8:1],,,6h[8:1],,,8h[8:1],,,2h[8:1],,,6-4[32:3],,8,1,,,6x,,,1,,,
{24}8^2[32:3]/6,,,7,,,8b/6,,,5,,5,3h[4:1],,,1,,,4h[4:1],,,2,,,
{24}1,,,3/7,,,4,6,4,6,4,6,3hx[12:1],,1hx[12:1],,7hx[12:1],,5hx[8:1],,,C,,,
{24}3-8[8:1]/8,,,2,,,3b/4,,,7,,7,5-3[32:3],,,8-6[32:3],,,5,,,8,,,
{24}2h[8:1],,,4,,,8h[8:1]/1,,,6,,,4-8[8:1]/5,,7,3,,,4x,,,6,,,
{24}7-4[8:1]/4,,,6,,,7b/8,,,3,,3,5-7[32:3],,,8-2[32:3],,,5,,,8,,,
{24}7h[8:1],,,5,,,2h[8:1]/1,,,4,,,1x-5[48:5],8x-3[24:2],7x,6x,,,1bx/8bx,,,,,,
{24}2-5[8:1]/4,,,3,,,2b/1,,,6,,6,8-2[32:3],,,5-7[32:3],,,8,,,5,,,
{24}3h[8:1],,,1,,,5h[8:1]/4,,,7,,,1-5[8:1]/8,,6,2,,,1x,,,8,,,
{24}6-1[8:1]/1,,,7,,,6b/5,,,2,,2,8-6[32:3],,,5-3[32:3],,,8,,,5,,,
{48}1xh[12:1],,,,3,,4,,,,2,,1xh[12:1],,,,3,,4,,,2x/1xh[8:1],,,,,,A3,E4,E5,A5,,,2x/6x,,,2x/6x,,,,,,8b,,,,,,
{24}2v5[8:1]/5,,,1,,8,2b,,,6,,6,4-2[32:3],,,8-6[32:3],,,4v1[8:1],,,8,,,
{24}4x^7[8:1],,,5,,,4^1[8:1],,,3,,,8-3[48:5],7-3[24:2],6,5,,,7xb/8bx,,,,,,
{24}6v1[8:1]/1,,,7,,5,6b,,,2,,2,8-6[32:3],,,5-3[32:3],,,8v5[8:1],,,5,,,
{24}8x^3[8:1],,,1,,,8^5[8:1],,,7,,,8b^3[8:1]*q4[8:1],,,4xq8[8:1],,,,,,,,,
{24}3x^6[8:1],,,2,,4,3b,,,7,,7,1-3[32:3],,,5-7[32:3],,,1v4[8:1],,,5,,,
{24}1x^6[8:1],,,8,,,1^4[8:1],,,2,,,5-2[48:5],6-2[24:2],7,8,,,6xb/5bx,,,,,,
{24}7v4[8:1]/4,,,6,,8,7b,,,3,,3,5-7[32:3],,,8-2[32:3],,,5v8[8:1],,,8,,,
{8}5xpp8[64:15],4,3,2,1bw5[8:1],B8/E8/B2/E3,,,
{8}2qq6<3[4:3]/5,,E5/B5,,,,E5/B5,,
{8}6<3>6[8:5],,4h[4:1],,,5x,3x,,
{8}3pp1[4:2]/7,,E7/B6,,,,E7/B6,,
{8}5-8[8:1],,1,3,5-2[8:1],8x,6x,,
{8}1^4[8:1]/8,7,6,5,4^7[8:1]/3,2,1,8bV26[4:1],
{8},7,7,7V51[4:1],,2x,4x,4V26[4:1],
{8},1,1,1V73[4:1],,5,5,5V36-2-7-1[8:5],
{8},,,,,6x,4x,,
{24}3h[12:1],,5,4,,,6h[8:1]/5,,,4,,,7h[12:1],,5,6,,,3/4h[8:1],,,2,,,
{24}1/5,,2,4,,3,5,,4,6,,5,7-3[8:1],,,5x,,,1x,,,,,,
{24}2h[12:1],,4,3,,,4h[8:1]/5,,,6,,,7h[12:1],,4,5,,,6h[8:1]/4,,,3,,,
{8}2b<4[16:7],E8,E5,E1,E4,E2,E3,C,
{24}6h[12:1],,4,5,,,3h[8:1]/4,,,5,,,2h[12:1],,4,3,,,6/5h[8:1],,,7,,,
{24}8/4,,7,5,,6,4,,5,3,,4,2-6[8:1],,,4x,,,8x,,,,,,
{24}7h[12:1],,5,6,,,5h[8:1]/4,,,3,,,2h[12:1],,5,4,,,3h[8:1]/5,,,6,,,
{24}8,7,6,2,3,4,7,6,5,1,2,3,4-1[8:1]/8b-5[8:1],,,2/6,,,Cf,,,,,,
{24}1bx,2,3,8/4h[8:1],,,2bx,3,4,5h[8:1]/1,,,1bx^6[8:1],2,3,4h[8:1]/8,,,1bx,,,,,,
{32}3-1[32:3],,,,8x,7x,6x,,3-5[32:3],,,,7x,6x,5x,,3-7[8:1]*-1[32:3],,,,8x,7x,6x,,3bx,,,,,,,,
{24}8bx,7,6,1/5h[8:1],,,7bx,6,5,4h[8:1]/8,,,8bx^3[8:1],7,6,5h[8:1]/1,,,8bx,,,,,,
{32}7hx[8:1],,,,3x,4x,5xh[8:1],,,,6x,,4x/7x,,4x/7x,,3x-6[8:1]/8x-5[8:1],,,,2/1,,,,3b/8b,,,,,,,,
{24}2bx,3,4,5h[8:1]/1,,,7bx,6,5,4h[8:1]/8,,,1bx-5-2[4:1],2,3/8bx,7,6,5,1bx,,,,,,
{32}7x-5[32:3],,,,1x,2x,3x,,7-1[32:3],,,,4x,3x,2x,,7-4[8:1]*-3[8:1],,,,2x,3x,4x,,7bx,,,,,,,,
{24}7bx,6,5,4h[8:1]/8,,,2bx,3,4,5h[8:1]/1,,,8bx-4-7[4:1],7,6/1bx,2,3,4,8bx,,,,,,
{32}2x-5[8:1],,,,8x-4[8:1],7x,6x,,2,,,,8,,,,2,1,8,7,6,5,4,3,2bx/Cf,,,,,,,,
{24}2-5[8:1]/5,,4,3,,1,2,,,7,,,4/5-1[8:1],,2,1,,4,5,,,3,,,
{24}8,7,6,2,3,4,7,6,5,1,2,3,7x,5,6,3x,4,2,1bx/8bx,,,3/7,,,
{24}6^3[8:1]/5,,1,8,,5,6,,,2,,,1-5[8:1]/5,,7,8,,6,1,,,8,,,
{24}6,5,4,1,2,3,7,6,5,2,3,4,8w4[8:1],7,6,4,3,2,8b,,,,,,
{24}7-4[8:1],,5,6,,8,7,,,2,,,5/4-8[8:1],,7,8,,5,4,,,6,,,
{24}1,2,3,7,6,5,2,3,4,8,7,6,2x,4,3,6x,5,7,8bx/1bx,,,6/2,,,
{24}3^6[8:1]/4,,8,1,,4,3,,,7,,,8-4[8:1]/4,,2,1,,3,8,,,1,,,
{24}3,4,5,8,7,6,2-4^5-1-6[16:7],3,4,7,6,5,1bx,,,,,,,,,,,,
{1},
&inote_6=
&inote_7=(130)
{1},
{24}4h[8:1]/3h[8:1],,,,,3,4,,,2,,,1h[4:1]/8,,,,,,E3/B3,,,,,,
{24}4h[8:1]/3h[8:1],,,,,3,4,,,2,,,8h[4:1]/1,,,6x,,,2x,,,,,,
{24}4h[8:1]/3h[8:1],,,,,3,4,,,2,,,1h[4:1]/8,,,,,,E3/B3,,,,,,
{24}4h[8:1]/3h[8:1],,,,,3,4,,,2,,,7h[4:1]/8,,,5x,,,2x,,,,,,
{24}3h[8:1]/5h[8:1],,,,,3,5,,,2/6,,,1h[4:1]/7,,,7,,,E3/B3,,,,,,
{24}3h[8:1]/5h[8:1],,,,,3,5,,,2/6,,,8h[4:1]/1,,,5x,,,3x,,,,,,
{24}3h[8:1]/5h[8:1],,,,,3,5,,,2/6,,,1h[4:1]/7,,,7,,,E3/B3,,,,,,
{24}3b^8[8:1]/5b^8[8:1],,,,,,,,,,,,2h[8:1]/1,,,4,,,7h[8:1]/8,,,5,,,
{24}4-2[32:3]/6,,,7,,,4b/6,,,8,,8,1h[4:1],,,3,,,4h[4:1],,,2,,,
{24}3hx[8:1],,,1h[8:1],,,8h[8:1],,,6h[8:1],,,3-5[32:3],,8,1,,,3x,,,6,,,
{24}7^1[32:3]/5,,,6,,,7b/5,,,4,,4,1h[4:1],,,2,,,4h[4:1],,,3,,,
{24}1hx[8:1],,,3h[8:1],,,4h[8:1],,,6h[8:1],,,7v5[8:1],,,4^1[8:1],,,3,,,,,,
{24}7-5[32:3],,,8,,,7b/1,,,2,,2,4h[4:1],,,3,,,2h[4:1],,,1,,,
{24}4hx[8:1],,,6h[8:1],,,8h[8:1],,,2h[8:1],,,6-4[32:3],,8,1,,,6x,,,1,,,
{24}8^2[32:3]/6,,,7,,,8b/6,,,5,,5,3h[4:1],,,1,,,4h[4:1],,,2,,,
{24}1,,,3/7,,,4,6,4,6,4,6,3hx[12:1],,1hx[12:1],,7hx[12:1],,5hx[8:1],,,C,,,
{24}3-8[8:1]/8,,,2,,,3b/4,,,7,,7,5-3[32:3],,,8-6[32:3],,,5,,,8,,,
{24}2h[8:1],,,4,,,8h[8:1]/1,,,6,,,4-8[8:1]/5,,7,3,,,4x,,,6,,,
{24}7-4[8:1]/4,,,6,,,7b/8,,,3,,3,5-7[32:3],,,8-2[32:3],,,5,,,8,,,
{24}7h[8:1],,,5,,,2h[8:1]/1,,,4,,,1x-5[48:5],8x-3[24:2],7x,6x,,,1bx/8bx,,,,,,
{24}2-5[8:1]/4,,,3,,,2b/1,,,6,,6,8-2[32:3],,,5-7[32:3],,,8,,,5,,,
{24}3h[8:1],,,1,,,5h[8:1]/4,,,7,,,1-5[8:1]/8,,6,2,,,1x,,,8,,,
{24}6-1[8:1]/1,,,7,,,6b/5,,,2,,2,8-6[32:3],,,5-3[32:3],,,8,,,5,,,
{48}1xh[12:1],,,,3,,4,,,,2,,1xh[12:1],,,,3,,4,,,2x/1xh[8:1],,,,,,A3,E4,E5,A5,,,2x/6x,,,2x/6x,,,,,,8b,,,,,,
{24}2v5[8:1]/5,,,1,,8,2b,,,6,,6,4-2[32:3],,,8-6[32:3],,,4v1[8:1],,,8,,,
{24}4x^7[8:1],,,5,,,4^1[8:1],,,3,,,8-3[48:5],7-3[24:2],6,5,,,7xb/8bx,,,,,,
{24}6v1[8:1]/1,,,7,,5,6b,,,2,,2,8-6[32:3],,,5-3[32:3],,,8v5[8:1],,,5,,,
{24}8x^3[8:1],,,1,,,8^5[8:1],,,7,,,8b^3[8:1]*q4[8:1],,,4xq8[8:1],,,,,,,,,
{24}3x^6[8:1],,,2,,4,3b,,,7,,7,1-3[32:3],,,5-7[32:3],,,1v4[8:1],,,5,,,
{24}1x^6[8:1],,,8,,,1^4[8:1],,,2,,,5-2[48:5],6-2[24:2],7,8,,,6xb/5bx,,,,,,
{24}7v4[8:1]/4,,,6,,8,7b,,,3,,3,5-7[32:3],,,8-2[32:3],,,5v8[8:1],,,8,,,
{8}5xpp8[64:15],4,3,2,1bw5[8:1],B8/E8/B2/E3,,,
{8}2qq6<3[4:3]/5,,E5/B5,,,,E5/B5,,
{8}6<3>6[8:5],,4h[4:1],,,5x,3x,,
{8}3pp1[4:2]/7,,E7/B6,,,,E7/B6,,
{8}5-8[8:1],,1,3,5-2[8:1],8x,6x,,
{8}1^4[8:1]/8,7,6,5,4^7[8:1]/3,2,1,8bV26[4:1],
{8},7,7,7V51[4:1],,2x,4x,4V26[4:1],
{8},1,1,1V73[4:1],,5,5,5V36-2-7-1[8:5],
{8},,,,,3x,5x,,
{24}3h[12:1],,5,4,,,6h[8:1]/5,,,4,,,7h[12:1],,5,6,,,3/4h[8:1],,,2,,,
{24}1/5,,2,4,,3,5,,4,6,,5,7-3[8:1],,,5x,,,1x,,,,,,
{24}2h[12:1],,4,3,,,4h[8:1]/5,,,6,,,7h[12:1],,4,5,,,6h[8:1]/4,,,3,,,
{8}2b<4[16:7],E8,E5,E1,E4,E2,E3,C,
{24}6h[12:1],,4,5,,,3h[8:1]/4,,,5,,,2h[12:1],,4,3,,,6/5h[8:1],,,7,,,
{24}8/4,,7,5,,6,4,,5,3,,4,2-6[8:1],,,4x,,,8x,,,,,,
{24}7h[12:1],,5,6,,,5h[8:1]/4,,,3,,,2h[12:1],,5,4,,,3h[8:1]/5,,,6,,,
{24}8,7,6,2,3,4,7,6,5,1,2,3,4-1[8:1]/8b-5[8:1],,,2/6,,,Cf,,,,,,
{24}1bx,2,3,8/4h[8:1],,,2bx,3,4,5h[8:1]/1,,,7bx,6,5,4h[8:1]/8,,,8bx,7,6,5h[8:1]/1,,,
{32}3-1[32:3],,,,8x,7x,6x,,3-5[32:3],,,,7x,6x,5x,,3-7[8:1]*-1[32:3],,,,8x,7x,6x,,3b,,,,,,,,
{24}8bx,7,6,1/5h[8:1],,,7bx,6,5,4h[8:1]/8,,,2bx,3,4,5h[8:1]/1,,,1bx,2,3,4h[8:1]/8,,,
{32}7hx[8:1],,,,3x,4x,5xh[8:1],,,,6x,,4x/7x,,4x/7x,,3x-6[8:1]/8x-5[8:1],,,,2/1,,,,3b/8b,,,,,,,,
{24}2bx,3,4,5h[8:1]/1,,,1bx,2,3,4h[8:1]/8,,,7bx,6,5/1bx,2,3,4,5/8bx,7,6,5h[8:1]/1x,,,
{32}7x-5[32:3],,,,1x,2x,3x,,7-1[32:3],,,,4x,3x,2x,,7-4[8:1]*-3[8:1],,,,2x,3x,4x,,7b,,,,,,,,
{24}7bx,6,5,4h[8:1]/8,,,8bx,7,6,5h[8:1]/1,,,2bx,3,4/8bx,7,6,5,4/1bx,2,3,4h[8:1]/8x,,,
{32}2x-5[8:1],,,,8x-4[8:1],7x,6x,,2,,,,8,,,,2,1,8,7,6,5,4,3,2bx/Cf,,,,,,,,
{24}2-5[8:1]/5,,4,3,,1,2,,,7,,,4/5-1[8:1],,2,1,,4,5,,,3,,,
{24}8,7,6,2,3,4,7,6,5,1,2,3,7x,5,6,3x,4,2,1bx/8bx,,,3/7,,,
{24}6^3[8:1]/5,,1,8,,5,6,,,2,,,1-5[8:1]/5,,7,8,,6,1,,,8,,,
{24}6,5,4,1,2,3,7,6,5,2,3,4,8w4[8:1],7,6,4,3,2,8b,,,,,,
{24}7-4[8:1],,5,6,,8,7,,,2,,,5/4-8[8:1],,7,8,,5,4,,,6,,,
{24}1,2,3,7,6,5,2,3,4,8,7,6,2x,4,3,6x,5,7,8bx/1bx,,,6/2,,,
{24}3^6[8:1]/4,,8,1,,4,3,,,7,,,8-4[8:1]/4,,2,1,,3,8,,,1,,,
{24}3,4,5,8,7,6,2-4^5-1-6[16:7],3,4,7,6,5,1bx,,,,,,,,,,,,
{1},
