&title=交響詩「悪魔の誕生」
&artist=Sakuzyo
&first=0
&des=fullower
&lv_5=14+
&inote_5=(180)
{2},
{32}3b>4[2:1]/8b,4b/7b,5b/6b,,,,,,{8}3/8,,,,1h[8:1],,
{8}
5h[8:1]/7h[8:1],,3h[8:1]/4h[8:1],,1h[8:1]/2h[8:1],,7/8,7/8,
{32}6b<5[2:1]/1b,5b/2b,4b/3b,,,,,,{8}6/1,,,,8h[8:1],,
{16}
6,5h[16:3],,,8,1h[16:3],,,4,3h[16:3],,,2-7[8:1],3,2,3,
{16}2b,,,4,6v1[8:1],,,,2/6,,,,
{16}3/8,4,5,6,
{16},1b-6[8:1]/7b,,,2,1-5[8:1],,,4,1,,3,,3,,,
{8}7h[8:1],6,2h[8:1],3,8h[8:1],7,1h[8:1],2,
{12}3,4,5,6,5,4,3,4,5,7b-3[8:1],,,
(180)
{16}1b/7b,,,2,4-6[8:1],,,3,4,,,2,4-7[8:1],,3,,4,,,2,4,,3,,4/6,,7,,2-6[8:1]/8,,1,,
(175)
{16}8b/2b,,,,
{16}7h[8:1],,5,,6h[16:3],,,5,7h[8:1],,5,,6h[16:3],,,5,7h[8:1],,5,,
{16}6h[8:1],,5h[8:1],,4h[8:1],,3,,
(180)
{16}1b-5[8:1],,,8,1,,7,,1-3[8:1],,,8,1,,7,,1-5[8:1],,,8,1,,7,,
{16}4/6,,3,,2^5[8:1]/8^5[8:1],,1,,
(175)
{16}2b/8b,,,,
{16}2h[8:1],,4,,3h[16:3],,,4,2h[8:1],,4,,3h[16:3],,,4,2h[8:1],,4,,
{16}3h[8:1],,4h[8:1],,5h[8:1],,6,,
(180)
{16}8bpp5[4:3],,,,,,,,6,,6,,7,,7,,
{16}8-2[8:1],,,,8/4q8[16:3],,,3,4,,,,
{16}4>6[8:3],,,,1h[4:1],,,,,,,,
{16}1,,1,,4/8,7,6,5,
{16}2/4,,,3,4,,,6,5,,4/6,,3/7-3[8:1],,2/8,,
{16}1b,,,,
{24}2/5,3,4,,,,4-8[8:1]/7,6,5,,,,2-6[8:1],,,,,,
{16}2b,,,,
{24}7/4,6,5,,,,5-1[8:1]/2,3,4,,,,7,,,,,,
{16}
2b/8b,,,3/4,4/5,,6,,1b/7b,,,5/6,4/5,,3,,
1b-7[12:1]*^7[12:1],,,,1b-6[8:1]*v6[8:1],,,,1b-5[8:1]*q5[8:1],,,,1b,,,,
{16}
2,,2,4,3,,4/5,,7,,7,5,6,,5/4,,
1,,1,3,2,,2,4,3,,3,5,4,,5/6,,
{16}
7,8,1,2,6,7,8,1,5,6,7,8,1/4,,5/8,,
4/1,3,2,1,5/8,7,6,5,4/8,3,2,1,4/8-4[8:1],,,,
6pp6[2:1]/8,,,,5,,4,,3,,,,1>6[4:1],,,,
{8}
1/7,,8,,1/2,1/2,3/8,3/8,
{16}4b/7b^4[4:1],,,,3,2,1,8,3,2,1,8,3-7[8:1],2,1,8,,,,,
{12}
4/6,4/6,4/6,3-8[8:1]/5-8[8:1],3/5,3/5,,,,
(185)
{8}7/2-6[8:1],1,3,,8/3-7[8:1],2,4,,1/4-8[8:1],3,5,,{16}6,7,8,1,6,7,8,1,
{8}2/7-3[8:1],8,6,,1/6-2[8:1],7,5,,8/5-1[8:1],6,4,,{16}3,2,1,8,3,2,1,8,
{8}2b/7b-4[8:1],,5,3-8[8:1],1,6,4,2,8-4[8:1]/1,7,8/1-5[8:1],2,8/1,,{16}6,4,5,3,
(200){4}2bpp1[4:7]/7bqq8[4:7],,
(195){4},
(190){4},
(180){4},
(170){4},
(160){4},
(110){4},
(160)
{12}1/8,,3,4,2,2,5-7[12:1],3,3-5[12:1],,,,,1,8,7,6,5,
{12}8s4[12:7]/4h,,1h,,6h,,3h,,8h,,5h,,
{12}7,5,6,5,4,5,
{12}3,,2-4[12:1],,3-5[12:1],,6-8[12:1],,7-1[12:1],,5,,4,3,2/7,1,5/8,7,1/6,5,,
{12}3/7,2,2,1/5,6p3[2:1],6,
{16},4,,,3,,,2,
(160)
{12},8,,1,6,4,8,
{12}2-4[12:1],,6-8[12:1],,7,,5-2[8:1],,1-6[8:1],,8,,4-8[8:1],,5-1[8:1],,6,,8b,,
{12}7-3[8:1],,6,,5-1[8:1],,4,4,3-7[8:1],,1,,2,2-5[8:1]*-4[8:1],8,,
{12}2V86[16:3],,,2/5,,,4-7[8:1],,3-8[8:1],,1,,5-2[8:1],,6-1[8:1],,8,
{8},4,{12},
{12}1/5,2,3,2/4,3,4,5,6,7,6/8,5,4,6/3^6[8:1],5/2,4/1,3/8,,,
{12}7/3,6,5,6/4,5,4,3,2,1,2/8,3,
(165)
{24}4/1,5,6,7-3[8:1],8,1,2,3,4,
{8}5b<4[1:1],
,,,,,,,,,,
(180)
{8},4,7,5,6h[4:1],,2,4,3h[4:1],,7,{16}1,8,1,,
(190)
{8}2/7,4,5,4,2/7,5,4,5,
{8}1/8,4,5,4,1/8,5,4,5,
{8}7/8,6,1/2,3,1/7,5,2/8,4,
{8}1/8,4/5,1-5[8:1]/8-4[8:1],4/5,1/8,,{32}1b/8b,2b/7b,3b/6b,4b/5b,,,,,
(185)
{8}1b/8b,,
{24}3,4,3,,,,6,5,6,,,,1-6[8:1]*-4[8:1],8,1,,,,
{24}1b,,,,,,
{24}7/4,6,5,,,,5-1[8:1]/2,3,4,,,,5,,,,,,
{8}8bw4[8:1],,8b,,1bw5[8:1],,1b,,3/7,,
(165)
{12}6/2,6/2,6/2,
{32}8/4,7,6,5,4,3,2,1,8b,,,,,,,,
(180)
{16}2/6,,,
{16}7,5-3[8:1],,,6,5,,,7,5-2[8:1],,6,,5<3[8:3],,,,
{8},,,4,5,6,
{16}8-6[12:1],,,1,8-4[8:1],,2,,8-6[8:1],,3,,8,,4,,
(180)
{8}5v2[8:1]*s1[8:1],,5,,,3/8,4,5/6,
{16}7/8,,,5,6,,5/7,,1/8,,,5,6,,5/7,,
{16}4,6,4,3,4,,2,,
{8}4/6,7,2-6[8:1]/8,1,2b/8b,,
{16}7h[8:1],,5,,6h[16:3],,,5,7h[8:1],,5,,6h[16:3],,,5,7h[8:1],,5,,
{8}6h[8:1],5h[8:1],4h[8:1],3,
{16}1bqq4[4:3],,,,,,,,3,,3,,2,,2,,
{16}1-7[8:1],,,,1/5p1[16:3],,,6,5,,,,
{16}5<3[8:3],,,,8h[4:1],,,,,,,,
{16}8,,8,,5/1,2,3,4,
{16}7/5,,,6,5,,,3,4,,
{8}3/5,2/6,1/7,
{4}8b^5[8:1]*v3[8:1],8b,2bq6[8:1]*^5[8:1],2b,1bpp3[8:1]/7bqq5[8:1],1b/7b,
{8}2/6,2/6,3/7,3/7,
{16}1b^6[4:1]/5b,,,,4,3,2,1,4,3,2,1-5[8:1],4,3,2,1,
,,,
{12}3/7,3/7,3/7,4-1[8:1]/6-1[8:1],4/6,4/6,
{16},,,,
(183)
{8}2/7-3[8:1],8,6,,1/6-2[8:1],7,5,,8/5-1[8:1],6,4,,{16}3,2,1,8,3,2,1,8,
{8}7/2-6[8:1],1,3,,8/3-7[8:1],2,4,,1/4-8[8:1],3,5,,{16}6,7,8,1,6,7,8,1,
{8}7b/2b-5[8:1],,4,6-1[8:1],8,3,5,7,1-5[8:1]/8,2,1/8-4[8:1],7,1/8,,{16}3,5,4,6,
(180)
{16}1b/8b,,,,1,,,8,,,1,,8,,
(185)
{16}1,,8,,1,8,1,8,
(190)
{16}1,8,1,8,{24}1,8,1,8,1,8,1,,,
(180)
{8}2b-6[8:1]/7b-3[8:1],4b/5b,2b/7b,,1b-5[8:1]/8b-4[8:1],3b/6b,1b/8b,,
{16}3,7,2,6,3,7,2,6,3,7,1-5[8:1],5,3,7,1b,,,,,,,,,,
(185)
{16}8-6[12:1],,,,
(230)
{16}8-2[12:1],,,,
(240)
{16}8^6[12:1],,,,
(280)
{16}8^2[12:1],,,,
(284)
{16}8-5[8:1],,,,
(288)
{16}8-3[8:1],,,,
(292)
{16}8^5[8:1],,,,
(295)
{16}8^3[8:1],,,,
(300)
{16}8-4[8:1],,,,8,,,,1,2,3,4,1,8,7,6,1,2,3,4,5/1,8,7,6,5/1,2,3,4,5/1-5[8:1],8,7,6,
(160)
{16}5/1b,,,
(130)
{16}7,8,
(150)
{16}1,2,
(180)
{16}7,8,1,2,
(190)
{16}7,8,1,2,7,8,1,2,
(200)
{16}7,8,1,2,
(205)
{16}7,8,1,2,
(210)
{16}7,8,1,2,
(190)
{4}6<3[2:1]/3,
(180)
{4}4,5,6,
{32}7-4[8:1],8,1,2,,,,,
{8}7,2,8,
{24}1,2,3,4/5-2[8:1],6,7,8,,,
(160)
{4}5b-1[8:1],5bpp6[8:1]/4bqq3[8:1],5b/4b,
