&title=天狗の落とし文 feat. ytr
&artist=魂音泉
&first=0
&des=B(@A@)D respects for mai-Star
&clock_count=4
&lv_6=14
&inote_6=(160){1},
{4}3/5,2,2,2,
4/6,7,7,7,
1/5,2/5,3/5,4/5,
4/6,4/7,4/8,1p5[8:1]/5p1[8:1],
1/5,1>4[8:1]/5<8[8:1],1/5,1p4[8:1]/5p8[8:1],
1/5,8-3[8:1]/4-7[8:1],8/4,4>1[8:1]/8q5[8:1],
4/8,1p4[8:1]/5<8[8:1],1/5,8z4[2:1]/4>8[2:1],
{4}4/8,,,2b/6b,
{16}1,,3,4,,6,5,,3,5,,6,4,3,2,1,
7,8,7,8,6-1[8:1],5,6,,6h[4:1],,,,2,,1,,
7/8,,6,5,,3,4,,6,4,,3,5,6,7,8,
2,1,2,3,2-5[8:1],1,2,,2h[4:1],,,,8,6,4,2,
8b,,,,2-5[8:1],,7-4[8:1],,2,,7,,1-5[8:1],1,8-4[8:1],,
1,,8,,2-6[8:1],2,6-1[8:1],6,,5,5,,4,5,6,,
3,7,3,7,1,5,1,5,2h[4:1],,,,1,8,7,6,
2,5,2,5,4,7,4,7>2[16:3],4p5[8:1],,,,,,,,
3b/7b,,4,6,,2,8,,3,5,,1,7,,5/6,,
3,4,,8,7,,5,6,,2,1,,1/3,,3/5,,
5/7,,2,8,,7,1,,1/8,,2/7,,3-8[8:1],3,6-1[8:1],,
{8}3,6,4v1[8:1],4v7[8:1],4-8[8:1],,,,
{16}2b/6b,,3,4,2,4,3,,6-1[8:1],5,7,5,6,,2,,
3,5,3,5,1,7,1,7,5p1[8:1],6,5-8[8:1],6,5,,,,
1,,3,4,,6,5,,4/5,,2,1,,7,8,,
1,5,1,5,4,8,4,8,3,7,3,7,2/6,3/7,4/8,1/5,
{4}2p5[4:1]/6p1[4:1],,,1/5,
{6}2-6[8:1],3,4,5-1[8:1],6,7,
{16}8,,2v7[8:1],2,,,3,,4,,5v3[8:1],5,,,7,,
{12}8,8,4,7,7,3,6-2[8:1],,,1p3[4:1],,,
{4}3p5[4:1],5p7[4:1],7,6h[4:1],
{12}1,1,7,2,2,8,3-7[8:1],,,8-4[8:1],,,
{4}4p5[4:1],5>7[8:3],2,3h[4:1],
{12}6,6,6,8,8,8,2,2,2,4-8[8:1],,,
{4}4<3[8:3],,5z1[4:1],,
{24}4,,4,,8,,3,,3,,7,,2-6[8:1],,,1,,,8,,,7,,,
{16}4/5,,7,4,,2,5,,1v4[8:1],,8v5[8:1],,1,,8,,
{16}3,,6,4,,2,7,,1q5[8:1],,,1-6[8:1],,,,,
{4}4>1[4:1],1q5[4:1],5q2[16:3],7h[4:1],
{12}3,3,6,2,2,5,1-5[8:1],1,4,4h[6:1],,,
2h[6:1],,5,3,6,4,7h[6:1],,4,6,3,5,
2,4,3,7,8,6,2,1,3,8-4[8:1],,,
{1}8>7[4:5],,2>1[4:5]/1<2[4:5],,
7<2[4:5]/4z8[4:5],,4q5[4:5]/5<4[4:5],,
{6}6h[4:1]/3h[2:1],,,7h[6:1],8h[6:1],1h[6:1],
2h[2:1],,,7h[6:1],1h[6:1],6h[6:1],
4h[2:1],,,3h[6:1],1h[6:1],7h[6:1],
5h[6:1],4h[6:1],2h[12:5],8h[4:1],,,
1p6[2:1],,,6>1[2:1],7,8,
1s5[2:1],,6,5,6,7>5[12:11],
{1}7h[1:1],
{4},1-5[8:1],6<1[8:1],2b,
{12}3q8[6:1],,8q4[8:1],8,,7,6p1[6:1],,1p4[8:1],1,,2,
3p6[4:1],,6,6>2[4:1],,2,2v8[6:1],,7,7,,,
{16}1,7,1,7,5,7,5,7,5,3,5,3,5,7,5,7,
4,6,3,6,2-4[8:1],6,1-5[8:1],6,2<7[8:1],,1,,2,,,,
{12}6p8[4:1],,8,8p4[4:1],,4,4>1[4:1],,1,1<5[4:1],,5,
5q2[4:1],,2,2q7[4:1],,7,7>5[16:3],,,3,,,
{16}2,8,2,8,2,4,2,4,6,4,6,4,2,4,2,4,
3,7,2,6,1,5,8,4,1-5[8:1],,6,6,1b,,,,
{12}7<4[4:1],,4,4>1[4:1],,1,1s5[4:1],,5,5>2[4:1],,2,
2p5[4:1],,5,5<8[4:1],,8,8z4[16:3],,,4,,,
3v8[4:1],,8,8<5[4:1],,5,5p1[16:3],,,1,,,
7-4[8:1]/8-4[8:1],7/8,7/8,7b/8b,,,2-5[8:1]/1-5[8:1],2/1,2/1,2b/1b,,,
2-6[16:1],,2,1-5[16:1],,1,8-4[16:1],,8,7-3[16:1],,7,
6-2[16:1],,6,5-1[16:1],,5,4-8[16:1],,4,3-7[16:1],,3,
{4}2<7[4:1],7<4[4:1],4>1[4:1],1<3[2:1],
{4}6h[4:3],,,1,
{1}7>2[2:1]/2p5[2:1],
1p4[2:1]/3v2[2:1],
7<4[4:3]/1>4[4:3],
{4},,8-5[8:1]/4p5[8:1],,
{16}2,4,3,,1/8,,7,5,6,5,7,,3,4,3,4,
2,4,1,,7/8,,5,6,,2,1,,2/4,,1/3,,
8,2,8,1,7,,3,5,,6,4,,5,3,4,3,
5,3,6,3,7,3,8,3,1,3,2,3,1<6[8:1],,,,
1b/2b,,,3,4-8[8:1],,5,,4b/6b,,,7,1-5[8:1],,2,,
1b/3b,,,4,6<8[8:1],,2>4[8:1],,6-2[8:1],,2-6[8:1],,6,,,,
{8}1-4[8:1],,1-6[8:1]/7,8,1-5[8:1]/3,,1/7,,
{16}7,,8,,1>3[8:1],,5<7[8:1],5,1q5[8:1],,5q1[8:1],,1,,,,
{8}7-3[8:1],,2/7,1,4<7[8:1]/8>3[8:1],,8/4,,
4-8[8:1]/8,8,7,6,5-1[8:1]/1,1,2,3,
{8}4-1[8:1],8v5[8:1],4,8,2-6[8:1],6<1[8:1],2,,
{32}5,,6,,7,,8,,1,,2,,3,,4,,5,6,7,8,1,2,3,4,5p2[8:3],6,7,8,1,2,3,4,
{1}5b,,
E
