&title=緋色の空
&artist=川田まみ
&first=0.17
&des=kondou
&lv_5=12+
&inote_5=(169){8}
1/2p1[8:4],,,,7,,,8,
,2,2^5[8:2],,6h[8:2],,,,
18,,3,,65,,8,8-3[8:1],
,3,4h[8:4],,,,,,
6/8>6[8:3],,7,7,,,8,81,
,2,2/4^1[8:2],,1^6[8:2],,6qq1[8:4],,
2h[8:4],,,,,,34,2/5-8[8:1],
,1,1,,7,6,5,4q8[16:3]/3,
,1,2-4[8:1],,,,5,6-1[16:3],
,2,3^6[16:3],,,,8,8,
7qq5[8:2]/1,,5q2[8:2],,3,,4,4,
1,7,5,2,8,6,1b/2b,,
4/5,,6,6^1[8:2],,1q7[8:2],,4h[8:2],
,,8,8-2[8:1],,3,3-6[8:1],,
6,,7,7^4[16:4],,4p7[8:2],,1h[8:2],
,,6h[8:4],,5,4,3,2,
1b/8b,,3,3^8[8:2],,8p2[8:2],,5h[8:2],
,,1,1-7[8:1],,6,6-3[8:1],,
3,,2,2^5[16:3],,5,,7h[8:2],
8,8,8,6,6,6,5,5,
4bV25[8:10]/8bV61[8:10],,,,,,,,
,,,,,,,3,
3q6[8:8],,,,,,,,
6<3[8:6],,,,,,,5,
5-8[8:6],,,,,,,,
,,1,,2,,3-8[8:1],,
7,,6,6qq8[8:3],,1,2,,
4,3,2,4,3,2,8,8,
1qq5[8:10]*pp5[8:10]/7,,,,,,,,
,,,,,,,1,
1-5[8:8],,,2,,,,,
,,,,,3,4,2,
6h[8:8],,,,,,,,
,,78,,81,,1<5[8:2]/2,,
3h[8:2],,,2,1-5[8:1]*-5[8:1]/4,,6,,
78,,5,63,2,4,6,8,
1b/2b<6[8:2],,6>2[8:2],,2p1[16:5],,8,8,
,7,7-5[8:1],,3,3,4-8[8:1],,
1,,2V46[8:2],,6,,8,8-5[8:1],
,1,1,,3,7,1,5,
3,4,4^7[8:2],,8,1,2,3,
4-1[8:1],,6-3[8:1]/4,,2-7[8:1]/6,,8<8[8:4]/2,,
8b/4h[8:4],,,,,,3b/4b,1bV35[16:3]/5b,
,5,8h[8:3],,4,4,{16}6,5,6,5,
{8}7b<3[8:2],,3V58[8:2],1,,2,2,3h[8:3]/1,
,4,4V68[8:2],,8V24[8:2],,4<2[8:3],,
8b,,3-6[8:1],,7,,8,1/8^5[8:1],
,3,3h[8:4],,2,1,8,7,
6b/2b,1,8^5[16:2]*^3[16:2],,8-4[8:1],,1,1,
,6,6-4[8:1]*-8[8:1],,6-2[8:1],,3,3,
1bV75[8:2],,4-1[8:1],,,,78,6b/2b-5[8:1],
,5,1b-6[8:1],,2,2,5b/4b>8[8:2],,
8q5[16:3],,5,7h[8:2],,2,3,5h[8:3]/4,
,8,8>4[8:2],,4<8[8:2],,8pp6[8:3],,
4b,,5-8[8:1],,1,2,3,8/4^1[8:1],
,6,6h[8:4],,7,8,1,2,
3b/7b,8,1^4[16:2]*^6[16:2],,1-5[8:1],,8,8,
,3,3-5[8:1]*-1[8:1],,3-7[8:1],,6,6,
5-8[8:1],,1q5[8:1],,6-2[8:1],,3,3,
,8,71,2/6V47[8:2],,3,1-5[8:1],,
1b/8h[8:8],,,,4>6[8:4],,,,
,,5-8[8:1],,8b,2b^5[8:1],,1,
6bw2[8:8],,,,,,,,
,,,,,,,,
