&title= Infinite Strife,
&artist=BlackYooh vs. siromaru
&first=0.071
&des= tairitempest / r2bxyy
&lv_5=14.1
&des_5=
&inote_5=
(198){4},,,,{1}8b/1b-6p3-8-5-2p7-4-1[4:29],
,,,,,,,{4}5/3,
{8}2,4/6,,3,{4}5/7,
{8}4,8/6-2[8:1],,6/3,{4}4h[4:1],{16}1,8,7,6,
{4}3/5,{8}7,5/3,,6,{4}4/2,
{8}5,1/3-7[8:1],,3/6,{4}5h[4:1],{16}8,1,2,3,
{4}6/4,{8}2,4/6,,3,{4}5/7,
{8}4,8/6-2[8:1],,6/3,{4}4h[4:1],{16}1,8,7,6,
4,5,3,6,4,5,3,6,4,5,2,7,3,6,1,8,
E1,E2,E3,E4,E5,E6,E7,E8,D1,D2,D3,D4,D5,D6,D7,D8,
{1}D1/Cf,
,5/6h[1:1],
8h[1:1],
{2}1h[2:1],3h[2:1],
{8}4h[8:3],,,5h[8:3],,,{4}6h[4:1],
2h[1:2],{8},,,,7,8,
{1}1h[1:1],
{48}D1/D3,A3/A8,D8/D4,A4/A7,D7/D5,A6/A5,{8}D6,{16},,,7,{2}7/6h[4:1],
{16}5h[4:1]/4h[4:1],,,,,,,2,{2}2/3h[4:1],
{16}4h[4:1]/5h[4:1],,,,,,,7,{2}7/6h[4:1],
{6}3h[6:1],2h[6:1],1h[6:1],8h[6:1],7h[6:1],6h[6:1],
{32}8,1,2,3xh[32:29],,,,,,,,,,,,,{8}5,6,7,7,
{2}6h[1:1],{8}4,3,2,2,
{12}5,4,3,2,1,8,7,6,5,4,3,2,
{24}E2,E1,E8,E7,E6,E5,E4,E3,E2,E1,E8,E7,E6,E5,E4,E3,E2,E1,{4}Cfh[4:1],
{1}B3/B2/B6/B7,
,6h[1:1]/3h[1:1],
,{32}1b/8b,
2/7,3/6,5/4,{1},{4},,,{16},,{1}2h[1:1]/7h[1:1],
{4},,,,6/3,
{8}2-4[8:1],4-8[4:1],2,5,6,7,
{4}6,{8}7-5[8:1],5-1[4:1],7,4,3,2,
{4}3,{8}3-5[8:1],5-1[4:1],3,6,7,8,
{4}7,{8}6-4[8:1],4-8[4:1],6,2,3,2,
1b,2,3b/7,6,5b/1,6,7b/3,2,
1/8,1/8,1/8,1/8,{16}2,7,3,6,4,5,3,6,
{2}7b/2b,{32}E2,B2,B3,E4,,,,,,,,,,,,,E8,
B7,B6,E6,,,,,,,,,,,,,{2}Cfh[64:1],
{8}1b/2,3,4/5,6,7/8,6-2[8:1],,6/4-8[8:1],
,4/3,,2,1/8<6[8:1],7,8/1-5[8:1],2,
8/1,7,6,5,4/3,2-6[8:1],,2/8-4[8:1],
,8/7,,6,{4}7h[8:1]/8h[8:1],{8}5/4,6,
7/8,6,5/4,3,2/1,3-7[8:1],,3/5-1[8:1],
,5/6,,7,8/1>3[8:1],2,1/8-4[8:1],7,
1/8,2,3,4,5/6,7-3[8:1],,7/1-5[8:1],
,1/2,,3,2-5[8:1],7-4[8:1],2,7,
1b,2,6/3,8<6[8:1]/1p5[8:1],,1>3[8:1]/8q4[8:1],,1-5[8:1]/8<6[8:1],
,1/8,,2,1h[8:1],4h[8:1],3h[8:1],6h[8:1],
1b,2,1/7,8-2[8:1]/6-4[8:1],,8-3[8:1]/6-3[8:1],,8-2[8:1]/6-4[8:1],
,6/8,,3,{16}4,5,3,6,{8}2,7,
8b,7,3/6,1>3[8:1]/8q4[8:1],,8<6[8:1]/1p5[8:1],,8-4[8:1]/1>3[8:1],
,8/1,,7,8h[8:1],5h[8:1],6h[8:1],3h[8:1],
8b,7,8/2,1-7[8:1]/3-5[8:1],,1-6[8:1]/3-6[8:1],,1-7[8:1]/3-5[8:1],
,3/1,,6,{16}2,7,3,6,4,5,3,6,
{8}2bh[2:1],7,6,5,7h[2:1],3,2,3,
4h[2:1],8,7,6,8h[2:1],1,2,3,
{16}1h[4:3],7x,6x,5x,4x,3x,{8}2x,{16}8x,7x,6x,5x,4x,3x,2x,1x,
{8}8xh[2:1],2,3,4,3h[2:1],7,6,5,
{16}4h[2:1],,,,,,,1,{2}1h[2:1],
{8}5h[8:3],,,6h[8:3],,,{4}8h[4:1],
{8}2-5[8:1],2,7-4[8:1],7,3-8[8:1],3,6-1[8:1],6,
{16}2,3,4,5,8,7,6,5,8,1,2,3,5/4,6,7,8,
{8}2b/1h[2:1],2,3,4,2h[2:1],6,7,6,
5h[2:1],1,2,3,1h[2:1],8,7,6,
{16}8h[4:3],2x,3x,4x,5x,6x,{8}7x,{16}1x,2x,3x,4x,5x,6x,7x,8x,
{8}1xh[2:1],7,6,5,6h[2:1],2,3,4,
{4}5p8[4:1],5/3,4q1[4:1],6/4,
5p8[4:1],3/5,4q1[4:1],6/4,
{8}7-4[8:1],7,2-5[8:1],2,6-1[8:1],6,3-8[8:1],3,
{16}7,6,5,4,1,2,3,4,8,7,6,5,8w4[8:1],1,2,3,
{2}8b,{4}3bxh[8:3]/Cf,{24}A1,D1,A8,D8,A7,D7,
{4}Cfh[2:1],{12}7xh[24:1],8xh[24:1],1xh[24:1],{4}2xh[8:1],{24}A1,D1,A8,D8,A7,D7,
{4}Cfh[2:1],{24}A7,D8,A8,D1,A1,D2,{48},,,,,,,,,,,,{16}6/2,5/1,4/8,3/7,
6/2,1/5,8/4,7/3,{4}6-2[8:1]/2-5[8:1],{2}6b/2b,
{8}4h[16:1]/1h[16:1],3h[16:1]/6h[16:1],5h[16:1]/8h[16:1],6h[16:1]/3h[16:1],{4}B2/A2/D3/A3/D4/A4/B4/B3/E3/E4,{8}6h[16:1]/4h[16:1],6h[16:1]/4h[16:1],
7h[16:1]/3h[16:1],7h[16:1]/3h[16:1],8h[16:1]/2h[16:1],8h[16:1]/2h[16:1],{16}1bx,1bx,1bx,1bx,1bxw5[8:1],1bx,1bx,1bx,
{4}1bx,{12}7,8,1,2/8,1,2,1/3,2,3,
{2}4/2-6[12:1],7-3[12:1],
{4}1/E3,1/E4,1/E5,1/E6,
1/E7,1/E8,2h[8:1]/7h[8:1],{16}1,1,{8}1,
{4}8/E7,8/E6,8/E5,8/E4,
8/E3,8/E2,7h[8:1]/2h[8:1],{16}8,8,{8}8,
{16}7/1,,,3,{8}4,6,{16}8/2,,,6,{8}5,3,
{16}7/1,,,3,{8}4,6,{16}8/2,,,6,{8}5,3,
{16}4,5,3,6,2,7,1,8,3,6,2,7,1,8,2,7,
{32}1,2,3,4,5,6,7,8,1,2,3,4,5,6,7,8,1,2,3,4,5,6,7,8,1,2,3,4,5,6,7,8,
{64}Cfh[64:1]/1-7-4b[0.303##1.8182]*-3-6b[0.303##1.8182],,{1},{4},,,{16},,,{32},{8}5/4,
{16}6,5,{8}8,{16}3,4,{8}1,{16}8,7,,6,{8}5,
7/4,{16}3,4,{8}1,{16}6,5,{8}8,{16}1,2,,3,{8}4,
{16}2/5-2[8:1],,,6,,,{8}8,{16}7/4-7[8:1],,,3,,,{8}1,
8<5[8:1],1>4[8:1],8,1,{16},,6,5,7,3,4,2,
{8}5h[8:1],1<6[8:1],5h[8:1],1>4[8:1],5h[8:1],1-6[8:1],5,1>5[8:1]/5<1[8:1],
,5p1[8:1]/1p5[8:1],{24},,,,,,,,,6x/2x,7x/3x,8x/4x,{4}5xh[8:1]/1xh[8:1],
{16}5,1,4,8,3,7,2,6,1,5,2,6,3,7,4,8,
{8}5h[4:1]/1h[4:1],{24},,,,,,8x/4x,7x/3x,6x/2x,{4}5x/1x,1bpp4[8:7]/5bpp8[8:7],
{1}5b/1b,
{16}6b/1b-6[8:1],,,2b,,,{8}4b,{16}3b/8b-3[8:1],,,7b,,,{8}5h[12:1],
{32}6x,7x,8x,1x,2x,3x,4x,5x,{8}2xh[12:1]/6xh[12:1],{16}3x/7x,4x/8x,1xh[16:1]/5xh[16:1],,,4h[16:1]/8h[16:1],,,{8}3/7,
{16}2h[16:1]/6h[16:1],,,3h[16:1]/7h[16:1],,,{8}4/8,{24},,,,8x,7x,6x,5x,8x,7x,6x,5x,
{8}4xh[8:1],8>3[8:1],4h[8:1],8<5[8:1],4h[8:1],8-3[8:1],4,8<4[8:1]/4>8[8:1],
,4q8[8:1]/8q4[8:1],{24},,,,,,,,,3x/7x,2x/6x,1x/5x,{4}4xh[8:1]/8xh[8:1],
{8}2b/5bx,{16}6,3,{8}8,7b/4bx,{16}3,6,{8}1,2b/5bx,{16}6,3,
{8}8,7b/4bx,{16}3,6,1,5,2,,,7/3,,,{8}4/1,
{16}5,7,3,8,4,6,2,7,4,6,3,1,5,7,3,6,
1,2,3,4,8,7,6,5,{32}1,2,3,4,5,6,7,8,{4}5b/1,
{8}1/6h[1:1],2-7[8:1],,2>4[8:1],,2<8[8:1],,2qq5[4:1],
,2,,7,8,7/3,{4}6h[8:1]/2h[8:1],
7/1-6[16:3],3,{8}2,3/1,4,5/2,
{16}8,7,6,5,1,2,3,4,{8}8,7,{4}6h[8:1]/2h[8:1],
{8}8/3h[1:1],7-2[8:1],,7<5[8:1],,7>1[8:1],,7pp4[4:1],
,7,,2,1,2/6,{4}3h[8:1]/7h[8:1],
2/8-3[16:3],6,{8}7,6/8,5,4/7,
{16}1,2,3,4,8,7,6,5,{8}1,2,{4}6h[8:1]/3h[8:1],
{16}4,5,6,7,8/4,1/5,2/6,3/7,{4}8/4h[16:3],{8}7h[8:1],3h[8:1],
{16}8,1,2,3,4/8,5/1,6/2,7/3,4/8h[16:3],,,3h[16:3],,,{8}6,
3/1b,1-4[8:1],1,7/1b,1-6[8:1],1,1b,8-3[8:1],
8,8b/6,8-5[8:1],8,{4}8b/2-5[8:1],2b/8-4[8:1],
{8}3/8b,{16}2-6[8:1],2,,,{8}7/2b,{16}8-4[8:1],8,,,{8}3/8b,{16}2-6[8:1],2,
,,{8}7/2b,{16}8,8,,,5h[16:1]/1h[16:1],,,3h[32:3]/8h[32:3],,,{8}7h[16:1]/1h[16:1],
6/8b,8-5[8:1],8,2/8b,8-3[8:1],8,8b,1-6[8:1],
1,1b/3,1-4[8:1],1,{4}1b/7-4[8:1],7/1,
{12}3b,4bx,1bx,6b,5bx,8bx,3b,4bx,1bx,6b,5bx,8bx,
{24}3b/7h,6,5,4,3,2,1/3h,4,5,6,7,8,6,7,6,7,6,7,6,7,6,7,6,7,
{1}6z2[4:15],
E
