&title=怪獣
&artist=サカナクション
&first=0.02
&des=Holinality
&clock_count=4
&lv_7=踊
&inote_7=(180)
{1}
,
{8}
,,,,,,,,
5pp7[4:1],,,,,,,,
B8,,,C,,,,,
,,,,,,,,
26,,37,,26,,37,,
26,,37,,26,,37,,
26,,37,,26,,37,,
26,,37,,26,,37,,
26,,37,,26,,37,,
16,,38,,16,,38,,
16,,38,,16,,38,,
16,,38,,16,,38,,
16,,38,,16,,38,,
16,,38,,16,,38,,
16,,38,,16,,38,,
7-5[8:1]/2-4[8:1],,,,,,,,
1h[4:1]/6h[4:1],,,,,,38,,
,,16,,,,,,
3-1[8:1],,,,6-4[8:1],,,,
3-5[8:1],,,,6-4[8:1],,,,
3-5[8:1],,,,6-4[8:1],,,,
2-5[8:1],,,,7-4[8:1],,,,
2-5[8:1],,,,7-4[8:1],,,,
2-5[8:1],,,,7-4[8:1],,,,
2-5[8:1],,,,7-4[8:1],,,,
2-5[8:1],,,,7,,3x-1-3-5-3-1-3-5-3-1-3-5-3-1-3-5[4:8],,
,,,,,,,,
,,,,,,6x-8-6-4-6-8-6-4-6-8-6-4-6-8[8:13],,
,,,,,,,,
,,,,,,,,
{32}
E6/E2,B6/B2,B7/B3,E8/E4,,,,,
E7,C,E3,,,,,,
,,,,,,,,
,,,,,,,,
E6/E2,B6/B2,B7/B3,E8/E4,,,,,
E3,C,E7,,,,,,
,,,,,,,,
,,,,,,,,
E6/E2,B6/B2,B7/B3,E8/E4,,,,,
E7,C,E3,,,,,,
,,,,,,,,
,,,,,,,,
E6/E2,B6/B2,B7/B3,E8/E4,,,,,
E3,C,E7,,,,,,
,,,,,,,,
4>2[8:1],,,,,,,,
{8}
,,5<7[8:1],,,,4>2[8:1],,
,,5<7[8:1],,,,4>2[8:1],,
,,5<7[8:1],,,,4>2[8:1],,
,,5<7[8:1],,,,4>2[8:1],,
,,5<7[8:1],,,,4>2[8:1],,
,,5<7[8:1],,,,4>2[8:1],,
,,5<7[8:1],,,,4>2[8:1],,
,,5<7[8:1],,,,,,
E5,,,,A6,,,,
E3,,,,D8,,,,
D2/D7,,,,E8/E3,,,,
B1/B6,,,,B3/B7,,,,
B2/A6,,,,E3/B7,,,,
E2/B6,,,,E3/E8,,,,
B2/D6,,,,E3/B8,,,,
E2/B6,,,,B7/B3,,,,
,,,,47,,,,
,,,B5f,,,,,
E5/B4/B5,,E5/B4/B5/3x-7[8:1],,,,,,
E5/B5/B4,,E5/B5/B4/6x-2[8:1],,,,,,
E5/B5/B4,,E5/B5/B4/3x-7[8:1],,,,,,
E5/B5/B4,,E5/B5/B4/6x-2[8:1],,,,,,
E5/B5/B4,,E5/B5/B4/3x-7[8:1],,,,,,
E5/B5/B4,,E5/B5/B4/6x-2[8:1],,,,,,
{16}
5,4,5,4,5,,,,
B7f,,,,,,,,
5,4,5,4,5pp7[8:1]*qq3[8:1],,,,
,,,,,,,,
4,5,4,5,4qq2[8:1]*pp6[8:1],,,,
,,,,,,,,
5,4,5,4,5pp7[8:1]*qq3[8:1],,,,
,,,,,,,,
{8}
E5/B4/B5,,E5/B4/B5/3x-7[8:1],,,,,,
E5/B5/B4,,E5/B5/B4/6x-2[8:1],,,,,,
{16}
5,4,5,4,5pp7[8:1]*qq3[8:1],,,,
,,,,,,,,
{8}
A6/E4f,,,,,,,,
{16}
,,,,8hx[16:2]/3hx[16:2],,,7x/2x,
6hx[16:2]/1hx[16:2],,,7x/2x,8hx[16:2]/3hx[16:2],,,7x/2x,
6hx[16:2]/1hx[16:2],,,7x/2x,8hx[16:2]/3hx[16:2],,,7x/2x,
6hx[16:2]/1hx[16:2],,,7x/2x,8hx[16:2]/3hx[16:2],,,7x/2x,
6hx[16:2]/1hx[16:2],,,7x/2x,8hx[16:2]/3hx[16:2],,,7x/2x,
6hx[16:2]/1hx[16:2],,,7x/2x,8hx[16:2]/3hx[16:2],,,7x/2x,
6hx[16:2]/1hx[16:2],,,7x/2x,8hx[16:2]/3hx[16:2],,,7x/2x,
6hx[16:2]/1hx[16:2],,,7x/2x,8hx[16:2]/3hx[16:2],,,7x/2x,
6hx[16:2]/1hx[16:2],,,7x/2x,8hx[16:2]/3hx[16:2],,,7x/2x,
6hx[16:2]/1hx[16:2],,,7x/2x,8hx[16:2]/3hx[16:2],,,7x/2x,
6hx[16:2]/1hx[16:2],,,7x/2x,8hx[16:2]/3hx[16:2],,,7x/2x,
6hx[16:2]/1hx[16:2],,,7x/2x,8hx[16:2]/3hx[16:2],,,7x/2x,
6hx[16:2]/1hx[16:2],,,7x/2x,8hx[16:2]/3hx[16:2],,,7x/2x,
6hx[16:2]/1hx[16:2],,,7x/2x,8hx[16:2]/3hx[16:2],,,7x/2x,
6hx[16:2]/1hx[16:2],,,7x/2x,8hx[16:2]/3hx[16:2],,,7x/2x,
,,,,2hx[16:3]/7hx[16:3],,,,
6hx[16:2]/1hx[16:2],,,7x/2x,8hx[16:2]/3hx[16:2],,,7x/2x,
6hx[16:2]/1hx[16:2],,,7x/2x,8hx[16:2]/3hx[16:2],,,7x/2x,
6hx[16:2]/1hx[16:2],,,7x/2x,8hx[16:2]/3hx[16:2],,,7x/2x,
6hx[16:2]/1hx[16:2],,,7x/2x,8hx[16:2]/3hx[16:2],,,7x/2x,
6hx[16:2]/1hx[16:2],,,7x/2x,8hx[16:2]/3hx[16:2],,,7x/2x,
6hx[16:2]/1hx[16:2],,,7x/2x,8hx[16:2]/3hx[16:2],,,7x/2x,
6hx[16:2]/1hx[16:2],,,7x/2x,8hx[16:2]/3hx[16:2],,,7x/2x,
6hx[16:2]/1hx[16:2],,,7x/2x,8hx[16:2]/3hx[16:2],,,7x/2x,
6hx[16:2]/1hx[16:2],,,7x/2x,8hx[16:2]/3hx[16:2],,,7x/2x,
6hx[16:2]/1hx[16:2],,,7x/2x,8hx[16:2]/3hx[16:2],,,7x/2x,
6hx[16:2]/1hx[16:2],,,7x/2x,8hx[16:2]/3hx[16:2],,,7x/2x,
6hx[16:2]/1hx[16:2],,,7x/2x,8hx[16:2]/3hx[16:2],,,7x/2x,
6hx[16:2]/1hx[16:2],,,7x/2x,8hx[16:2]/3hx[16:2],,,7x/2x,
6hx[16:2]/1hx[16:2],,,7x/2x,8hx[16:2]/3hx[16:2],,,7x/2x,
{8}
6x/1x,,,,,,1pp3[8:3]*qq7[8:3],,
,,,,,,1pp3[8:3]*qq7[8:3],,
,,,,,,,,
,,2pp4[8:3]*qq8[8:3],,,,,,
,,,,1pp3[8:3]*qq7[8:3],,,,
,,,,,,,,
8pp2[8:3]*qq6[8:3],,,,,,,,
,,,,7pp1[8:3]*qq5[8:3],,,,
,,,,,,6qq4[8:3]*pp8[8:3],,
,,,,,,,,
,,,,1pp3[8:3]*qq7[8:3],,,,
,,,,,,,,
1pp3[8:3]*qq7[8:3],,,,,,,,
6h[4:8]/5-2[8:1],,,,5-2[8:1],,,,
5-2[8:1],,,,5-2[8:1],,,,
,,,8q1p8q1[4:6],,,,,
,,,,,,,,
,,,,,,8<1[2:1],,
8/C,,1<1[2:1],,B5,,1<1[2:1],,
B5f,,1<1[2:1],,B5f,,1bx<1b[2:1],,
B5f,,1bx<1b[2:1],,B5f,,1bx<1b[2:1],,
B5f,,1bx<1b[2:1],,B5f,,1bx<1b[2:1],,
B5f,,1bx<1b[2:1],,B5f,,1bx<1b[2:1],,
B5f,,1bx<1b[2:1],,B5f,,1bx<1b[2:1],,
B5f,,1bx<1b[2:1],,B5f,,1bx<1b[2:1],,
B5f,,1bx<1b[2:1],,B5f,,1b<1<8[2:1],,
B4f,,8bx<8b[2:1],,B4f,,8bx<8b[2:1],,
B4f,,8bx<8b[2:1],,B4f,,8bx<8b[2:1],,
B4f,,8bx<8b[2:1],,B4f,,8bx<8b[2:1],,
B4f,,8bx<8b[2:1],,B4f,,8bx<8b[2:1],,
B4f,,8bx<8b[2:1],,B4f,,8bx<8b[2:1],,
B4f,,8bx<8b[2:1],,B4f,,8bx<8b[2:1],,
B4f,,8bx<8b[2:1],,B4f,,8bx<8b[2:1],,
B4f,,8bx<8b[2:1],,B4f,,8bx<8b[2:1],,
,,,,,,,,
6-2v4[4:2],,,,,,,,
,,,,,,,,
,,,,7,7,,,
2/4h[8:1],2,,,7/5h[8:1],7,,,
2/4h[8:1],2,,,7/5h[8:1],7,,,
2/4h[8:1],2,,,7/5h[8:1],7,,,
2/4h[8:1],2,,,7/5h[8:1],7,,,
2/4h[8:1],2,,,7/5h[8:1],7,,,
2/4h[8:1],2,,,7/5h[8:1],7,,,
36,27,,,36,27,,,
36,27,,,36,27,,,
26,,37,,26,,37,,
26,,37,,26,,37,,
2b-6-4-1-7b[4:3],,,,,,,,
E7f,,,,,,6xpp6pp6pp6pp6pp6pp6pp6pp6pp6pp6pp6pp6pp6pp6pp6pp6pp6pp6pp6[4:52],,
,,,,,,,,
,,,,,,,,
,,,,,,,,
,,,,,,,,
,,,,,,,,
,,,,,,,,
,,,,,,,,
,,,,,,,,
,,,,,,,,
,,,,,,,,
,,,,,,,,
,,,,,,,,
,,,,,,,,
,,,,,,,,
,,,,,,,,
,,,,,,,,
2bh[4:10]/7bh[4:10],,,,,,,,
,,,,,,,,
,,,,,,,,
{32}
1x/8x,2x/7x,3x/6x,,,,,,
1x/8x,2x/7x,3x/6x,,,,,,
1x/8x,2x/7x,3x/6x,,,,,,
1x/8x,2x/7x,3x/6x,,,,,,
1x/8x,2x/7x,3x/6x,,,,,,
1x/8x,2x/7x,3x/6x,,,,,,
1x/8x,2x/7x,3x/6x,,,,,,
1x/8x,2x/7x,3x/6x,,,,,,
1x/8x,2x/7x,3x/6x,,,,,,
1x/8x,2x/7x,3x/6x,,,,,,
1x/8x,2x/7x,3x/6x,,,,,,
1bx/8bx,2bx/7bx,3bx/6bx,4bx>2>4>2>4>2>4>2>4>2>4>2>4[4:28]/5bx<7<5<7<5<7<5<7<5<7<5<7<5[4:28],,,,,
,,,,,,,,
,,,,,,,,
,,,,,,,,
,,,,,,,,
,,,,,,,,
,,,,,,,,
,,,,,,,,
,,,,,,,,
,,,,,,,,
,,,,,,,,
,,,,,,,,
,,,,,,,,
,,,,,,,,
,,,,,,,,
,,,,,,,,
,,,,,,,,
,,,,,,,,
,,,,,,,,
,,,,,,,,
,,,,,,,,
,,,,,,,,
,,,,,,,,
,,,,,,,,
,,,,,,,,
,,,,,,,,
,,,,,,,,
,,,,,,,,
,,,,,,,,
,,,,,,,,
,,,,E7/E3f,,,,
,,,,,,,,
,,,,,,,,
,,,,,,,,
,,,,,,,,
,,,,,,,,
,,,,,,,,
,,,,,,,,
,,,,,,,,
,,,,,,,,
,,,,,,,,
B6f/B3,,,,,,,,
,,,,,,,,
,,,,,,,,
,,,,,,,,
,,,,,,,,
,,,,,,,,
,,,,,,,,
,,,,,,,,
C,,,,,,,,
C,,,,,,,,
,,,,,,,,
6x/3x,2x/7x,1x/8x,,,,,,
1x/8x,,,,,,,,
,,,,,,,,
6x/3x,2x/7x,1x/8x,,,,,,
,,,,,,,,
6x/3x,2x/7x,1x/8x,,,,,,
,,,,,,,,
6x/3x,2x/7x,1x/8x,,,,,,
,,,,,,,,
6x/3x,2x/7x,1x/8x,,,,,,
,,,,,,,,
6x/3x,2x/7x,1x/8x,,,,,,
,,,,,,,,
6x/3x,2x/7x,1x/8x,,,,,,
,,,,,,,,
6x/3x,2x/7x,1x/8x,,,,,,
,,,,,,,,
6x/3x,2x/7x,1x/8x,,,,,,
,,,,,,,,
6x/3x,2x/7x,1x/8x,,,,,,
,,,,,,,,
6x/3x,2x/7x,1x/8x,,,,,,
,,,,,,,,
6x/3x,2x/7x,1x/8x,,,,,,
,,,,,,,,
7x/4x,3x/8x,2x/1x,,,,,,
,,,,,,,,
5x/2x,1x/6x,8x/7x,,,,,,
,,,,,,,,
7x/4x,3x/8x,2x/1x,,,,,,
,,,,,,,,
5x/2x,1x/6x,8x/7x,,,,,,
,,,,,,,,
7x/4x,3x/8x,2x/1x,,,,,,
,,,,,,,,
5x/2x,1x/6x,8x/7x,,,,,,
,,,,,,,,
7x/4x,3x/8x,2x/1x,,,,,,
,,,,,,,,
5x/2x,1x/6x,8x/7x,,,,,,
,,,,,,,,
7bx/4bx,3bx/8bx,2bx/1bx,,,,,,
,,,,,,,,
5bx/2bx,1bx/6bx,8bx/7bx,,,,,,
,,,,,,,,
7bx/4bx,3bx/8bx,2bx/1bx,,,,,,
,,,,,,,,
5bx/2bx,1bx/6bx,8bx/7bx,,,,,,
,,,,,,,,
6bx/2bx,7bx/3bx,8bx/4bx,,,,,,
,,,,,,,,
7bx/3bx,6bx/2bx,5bx/1bx,,,,,,
,,,,,,,,
6bx/2bx,7bx/3bx,8bx/4bx,,,,,,
,,,,,,,,
7bx/3bx,6bx/2bx,5bx/1bx,,,,,,
,,,,,,,,
6bx/2bx,7bx/3bx,8bx/4bx,,,,,,
,,,,,,,,
7bx/3bx,6bx/2bx,5bx/1bx,,,,,,
,,,,,,,,
6bx/2bx,7bx/3bx,8bx/4bx,,,,,,
,,,,,,,,
7bx/3bx,6bx/2bx,5bx/1bx,,,,,,
,,,,,,,,
{8}
64,,,35,,,,,
47,,,25,,,,,
47,,,25,,,,,
{16}
47,,,,,,25,,
,,,4b/7b,,,,,
,,,,,,,,
E
