&title=TOMORROW
&artist=Machico
&first=0.02
&des=このす발
&lv_5=13+
&inote_5=(268){4},,,,,,,,
{8}2b/6b,,1>4[16:3]/5,,6,6,,,
3,4,2,,6/5,,7,,
2b/6b,,1>4b[16:3]/5,,6,6,,,
3,4,2,,6,5,7,,
2b/6b,,1>4[16:3]*>4[16:3]/5,,6,6,,,
3,4,2,,6,5,7,4,
6x-8[16:3],,,,2x-4[16:3],,,,
6x^1[16:3],,,,2x^5[16:3],,,,
{8}6b,,7/8,,3,4,2^5[16:3],,
6,,7,,3,4,1^4[16:3],,
6,,7,,3,4,2>5[16:3],,
6,,7,,3,4,1^4[16:3],,
6-1[16:3],,,,2>5[16:3],,,,
6-1[16:3],,4,,2>5[16:3],,4,,
6b-1[16:3],,,2b^5[16:3],,,8bw4[8:2],,
,,,,1b^4[16:3]/7b,,,,
{8}6h[8:2],,5x,,2,4,2,,
6h[8:2],,8x,,2,4,2,,
6h[8:2],,5x,,2,4,2x,4,
1,5,1x,5,2,4,2x^4[8:1],,
6h[8:2],,5x,,2,4,2,,
6h[8:2],,8x,,2,4,2,,
6h[8:2],,5x,,2,4,2x,4,
1,5,1x,5,2,4,2x^5[16:3],,
6bx-1[16:3],,,2bx^5[16:3]*^7[16:3],,,,,
1,,6/5,,2,2,4,,
6b/5b,,,4b/2b,,,1b^4b[16:3]/8b^5b[16:3],,
,,,,2-8[8:1]/6-4[8:1],,2/6,,
2x-4[8:1],,B7,,6x-4[8:1],,B1,,
2x-4[8:1],,B7,,6x-4[8:1],,B1,,
2x,,6x,5x,,4x,5x,,
3,7,4,7,3,7,4,7,
{8}2h[8:2],,1x,,6,8,6,,
2h[8:2],,4x,,6,8,6,,
2h[8:2],,1x,,6,8,6x,8,
5,1,5x,1,6,8,6x^8[8:1],,
2h[8:2],,1x,,6,8,6,,
2h[8:2],,4x,,6,8,6,,
2h[8:2],,1x,,6,8,6x,8,
5,1,5x,1,6,2,6x^1[16:3],,
3bx-6[16:3],,,7bx^2[16:3]*^4[16:3],,,,,
5,,1/2,,3,3,7,,
6b/8b,,,1b/2b,,,4b^7b[16:3]/3b^8b[16:3],,
,,,,2-4[8:1]/6-8[8:1],,2/6,,
7x-5[8:1],,B2,,3x-5[8:1],,B8,,
7x-5[8:1],,B2,,3x-5[8:1],,B8,,
7x,,1x,3x,,1x,7x,,
3,4,5,6,3,4,5,6,
{8}3bx-7-1[8:6],,,6,,,5,,
4x<8[8:6],,,,2,,,,
4x-8-3[8:6],,,7,,,6,,
5x^7[8:2],,,,2x^4[8:2],,,,
6bx-2-8[8:6],,,3,,,4,,
5x-3v2[8:6],,,7,,,6,,
5x<1[8:6],,,2,,,3,,
4xq8[8:4]*v7[8:4],,,,,,,,
{8}3xh[8:6]/6-1[8:4],,,,,,,,
4xh[8:6]/2-7[8:4],,,,,,,,
6xh[8:6]/8-5[8:4],,,,,,,,
7xh[8:6]/4-8[8:4],,,,,,,,
1xh[8:6]/5,,,6,,,7,,
8xh[8:6]/2,,,4,,,5,,
7qq8[8:6]/6,,,,2,,,,
3,,3,,4/6,,1b/5b,,
,,3/4,,2/6,,4,5,
3-8[16:3],,,7<3[8:2],,,1bh[8:14],,
,,E5,E6,E7,,,,
{8},,,,{24}8,7,6,5,,,{8},,
{8}2b/6b-1[8:1],,4,,3,4,2,,
5/6-1[8:1],,4,,3,4,2,,
5/6,,3,4,2,5,1,6,
8-4[8:1],,7,,8-5[8:1],,3,,
2b-5[8:1]/4bx,,6,,7,4,6,,
2-5[8:1]/4,,6,,7,4,6,,
2/4,,6,5,7,3,5,1,
7-4[8:1],,3,,2,2,7,7,
1b-5[8:1],,6,,7-3[8:1],,4,,
2-5[8:1],,6,6-1[8:1],,3,3h[8:2],,
8b-4[8:1],,2,,1-6[8:1],,6,,
7-4[8:1],,2,2-7[8:1],,6,6h[8:2],,
8b-4[8:1],,5,,7-5[8:1],,2,,
8-4[8:1],,5,,7-5[8:1],,2,,
8b,,5,4,6b,,3,4,
{12}2bx,5,3,4,2,5,{8}3x,3x>7b[16:3],,6bx,
{8},,5,,1,4,3>7[16:3],,
6,,5,,1,4,3>7[16:3],,
6,,5,,1,4,3,7,
5-2[8:1],,6,,5-8[8:1],,3,,
4bx-1[8:1]*-2[8:1],,,,8bx-5[8:1]*-6[8:1],,,,
2x-4[8:1],,2x-8[8:1],,,,3bx,,
6x,5,6,5,7x,5,7,5,
{12}8x,7,6,4,3,2,8x,7,6,4-7[8:1],3,2,
{8}1bx,,2-5[8:1],,6,,7h[8:2],,
3,3,4,,1h[8:2]/6,,8-4[8:1],,
3b,,2-5[8:1],,6,,7h[8:2],,
3,3,4,4,1,1,6,6,
5b,,3,4,2-5[8:1],,6,,
7,,3,4,2,5,4,7,
1b<2[8:5],,,,,,,,
6,1,6,1,6,1,6,1,
{8}7b/8b,,1>4[16:3],,6,6h[8:2],,,
3,4,2,,6/5,,7,,
2b/6b,,1>4b[16:3]/5,,6,6h[8:2],,,
3,4,2,,6,5,7,3,
2b/6b,,1>4[16:3]*>4[16:3]/5,,6,6h[8:2],,,
{12}3x,4,2,5,,,6x,5,7,4,,,
{16}2h[16:2]/8bx,7,6,,,,1h[16:2]/2bx,3,4,,,,8bx/4bx,7/3,6/2,,
{8},,E
