&title=Search And Destroy
&artist=DJKurara and Supire
&first=-0.909
&des=torliからのTiebreaker
&des_6=torliからのTiebreaker
&lv_6=14+
&inote_6=(240){4},,,,{1}1qq2b[4:7],
,4h[1:1],
5h[1:1],
8pp7[4:7],
,5h[1:1],
4h[1:1],
2pp7[4:3],
8h[1:1],
5h[1:1],
4h[1:1],
Cfh[1:2],
,8bw4b[4:3],
{8},,,,3,3,{16}3,4,3,4,
{8}2/5,{16}7,8,{8}7,6,3/5,2,8/1,7,
6/5,4,4,8/3,2/1,{16}3,8,{8}3,7,
6/5,{16}3,4,{8}3,2,5/1,8/7,6,4/5,
{16}2,6,2,6,3,5,3,5,{8}1,{16}7,8,{8}7,1,
5/2,{16}3,4,3,4,{8}3,5/2,{16}7,1,{8}8,6/4,
5/2,{16}7,8,{8}7,{16}3,4,{8}3,{16}8,1,8,1,{8}8,
7/2,{16}6,5,6,5,{8}7,{16}3,4,3,4,{8}2,5/1,
{16}7,8,6,1,4,3,5,2,{8}8,7b/1b,6b/2b,5b/3b,
8/4,{16}2,5,3,4,{8}2,7/5,{16}8,1,{8}8,6/4,
{16}1,8,2,7,3,4,2,5,{8}1,8/3,{16}7,4,{8}7,
6/5,{16}3,8,{8}3,{16}6,5,7,4,{8}8,{24}2,3,4,5,,,8,
7,6,5,{48},,,,{16}3,4,3,4,{8}2,{16}7,8,7,8,{8}7,
{16}2,4,3,4,3,4,2,4,3,4,3,4,2,4,3,4,
{1}Cfh[1:1],
{16},,,,,,,,,,,,,,,,1,
8,1,8,{24}2,3,4,7,6,5,{8}1,1,{4}2b/8b,
{8}8/4,6,5/1,3,4/8,6,5/3,3,
6/2,1,8/7,6,5/2,7,6/4,1/8,
5/2,7,6/4,1,8/2,7,3/5,1,
8/4,7,5/2,3,{4}4h[8:1]/8h[8:1],{8}6/2,6/2,
7/4,8,1/3,4,7/5,8,2/6,4,
8/1,6,5/3,1,{4}8h[8:1]/4h[8:1],{8}7/3,{16}2,1,
{8}2,6,5/1,3,7/5,8,{16}3,4,3,4,
{8}3,5/2,5/2,7,{16}1,8,1,8,{8}1,7b/2b,
5/1,3,4/8,6,5/3,1,8/7,6,
4/3,1,8/2,5,6/4,3,8/2,8/2,
7/3,5,2/8,3,{4}6h[8:1]/5h[8:1],{8}7/2,{16}1,8,
1,8,{8}1,7/4,6/5,8/4,{16}2,1,{8}2,3/7,
8/4,7,5/1,3,4/2,8,7/1,2,
5/3,7,1/2,4,6/5,6/5,8/4,6/2,
{16}1,8,1,8,1,8,1,8,{32}1,2,3,4,5,6,7,8,1,2,3,4,5,6,7,8,
{2}1b/5b,{8}7b/5b,4b/2b,{4}8b/1b,
{8}7/4,6,8/1,2,5/3,7,1/2,2,
7/4,6,2/5,3,7/8,4,6/2,6/2,
7/1,3,4/5,8,1/2,4,7/5,8,
{4}1h[8:1],{8}2b/8b,8b/2b,{24}8/2,7/3,6/4,5,,,{8}7/3,6/4,
1/8,3,5/2,8,7/4,2,5/6,7,
8/3,6,1/2,4,6/2,8,5/3,5/3,
7/1,{16}6,5,6,5,{8}7,5/4,{16}2,1,{8}2,{16}7,8,
{8}7,6/1,{16}3,4,{8}3,{16}8,1,8,1,{8}8,6/2,
8/4,6,5/1,3,7/8,{16}2,6,{8}2,4/3,
5/1,7,6/2,4,{4}1h[8:1]/8h[8:1],{8}7/5,4/2,
{4}8h[8:1]/1h[8:1],{8}5/2,7,4/1,3,8/2,8/2,
6/4,3,7/3,{16}8,1,{8}8,3,7/4,8,
6/2,6/2,6/2,4,8/1,7,{4}6h[8:1]/3h[8:1],
{8}4/2,5,1/7,3,6/4,8,7/1,7/1,
6/2,{16}1,8,1,8,{24}2,3,4,7,6,5,1,,,{8}1,2/8,
{16}6,5,7,4,8,1,5,2,7,4,6,5,{4}8b,
6b/1b,4b/2bh[4:3],,,,,,8b/3b,
4b/7b,5b/6bh[2:1],{8},,,,,8b,
,,{2}5bh[4:1]/2bh[4:1],
{4}7b/3b,5b/6bh[4:3],{8},,,,,,,,,6b/1b,
{16}2,5,{8}2,
{4}4b/3b,2bh[4:1]/5bh[4:1],{8},,8b/1b,{16}6,5,
{8}7b,{16}3,4,{8}2b,{16}6,5,{8}8,8,{4}7b/1b,
{2}1h[4:1]/Ch[2:3],2h[4:1],
3h[4:1],4h[4:1],
5h[4:1]/Ch[2:3],6h[4:1],
7h[4:1],8h[4:1],
{4}1,1,8,8,
{8}2,2,7,7,3,3,6,6,
{4}4h[8:1],4h[8:1],5h[8:1]/3h[8:1],5h[8:1]/3h[8:1],
7b/1b,,,8b,
2-6[8:1],5-8[8:1],4,7/3,
1-6[8:1],7-3[8:1],5,{8}8/4,{16}7,5,
{4}7-3[8:1],8>2[8:1],4,5/3,
{16}3,4,{8}2,{16}6,5,{8}7,1,1,{4}2b/8b,
1-5[8:1],5v3[8:1],4,2/8,
7>2[8:1],3-7[8:1],4,5/1,
8h[8:1]/7h[8:1],{8}5,5,{4}4h[8:1]/6h[8:1],7h[8:1]/3h[8:1],
{2}2v5[8:1]/8-5[8:1],{16}4,6,{8}4,{4}8/2,
2/4<7[8:1],1-5[8:1],8,6/2,
4>1[8:1],7-4[8:1],8,5/1,
7-5[8:1],8-4[8:1],1-3[8:1],7,
{8}1/8,1/8,{16}6,5,{8}7,{16}3,4,{8}2,8,8,
{4}1/7>2[8:1],3-8[8:1],4,5/1,
8h[8:1],7h[8:1]/1h[8:1],6h[8:1]/2h[8:1],{8}5,3,
8,8,1,1,7,7,2,3,
{4}8b/4b,{16}2,5,2,5,{8}8b,7b/1b,{4}6b/2b,
5b,4b/3bh[4:3],,,{1}2h[1:1],
1h[1:1],
6h[1:1],
5h[1:1],
7h[1:1],
1h[1:1],
5w1[2:1],
{4}7b/3b,6b/5bh[4:3],,,{1}Ch[4:3],
{4}5b/1b,3b/4bh[4:3],,,{1}Ch[4:3],
{4}6b/5b,{8}2,2,{4}8b/1b,{8}4,4,
{4}5b/3b,{8}1,1,{4}2b/8b,{8}5,5,
{1}4bh[4:7]/5bV71V35<5[2:3],
{4},,,,1V75[4:1],
5V31[4:1],1,5,
{8}7,7,8,6,3,3,{4}4/2-5[8:1],
8>3[8:1],4-8[8:1],6,7/3,
{8}2>5[8:1],1,{4}2,8-4[8:1],8/4,
5V71[4:1],1V36[4:1],5,1,
{8}8,1,{4}7-3[8:1],3/7,5h[4:1],
8>4[4:1],4V61[4:1],8,3,
{8}8,8,{4}7/1h[4:1],{8}5,{16}3,4,{4}1b,
8<6[8:1],8>2[8:1],8-4[8:1],8,
{8}3,3,5,4,6,6,{4}7/5h[4:1],
8V64[4:1],4V27[4:1],8,3,
{8}2>5[8:1],1,2,7,{4}8-4[8:1],8/4,
1-4[8:1],2-7[8:1],3-6[8:1],5,
{8}1,1,8,2,5,5,{4}6/4,
{8}2/8,3,4/6,7,8/1,3,5/4,7/2,
{16}1,8,1,8,2,7,2,7,{8}1,1,{4}7b/3b,
{8}5/2,8,6/4,1,7/3,6,1/8,4,
5/2,6,8/7,2,6/4,8,5/2,5/2,
1/7,3,6/4,8,1/2,5,{4}7h[8:1]/3h[8:1],
8h[8:1]/1h[8:1],6h[8:1]/2h[8:1],{8}5/3,5/3,{4}7b/1b,
{8}8/4,7,5/1,3,6/2,8,2/1,2,
3/7,4,5/2,8,6/1,4,5/3,7/1,
5/3,8,1/2,4,5/1,7,6/8,3,
{4}4b/2bh[4:1],B3/E4,5b/6bh[4:1],B7/B8,
{8}4bh[4:1]/3bh[4:1],,,5bh[4:1]/2bh[4:1],,,1,1,
8bh[4:1],,,7bh[4:1]/1bh[4:1],,,6b/2b,6b/2b,
7b/4b,8/1,5b/2b,4/3,8b/1b,7/5,6b/2b,8/4,
{32}1,2,3,4,5,6,7,8,1,2,3,4,5,6,7,8,1,2,3,4,5,6,7,8,{4}1b,
6bh[4:1],{8}5b,7b/4bh[4:1],,8b,{16}1b,7b,{8}1b,
{4}6b/2bh[4:1],{32}8b,7b,6b,5b,{8}4bh[8:1],{32},,,,1b,2b,3b,4b,{4}5bh[8:1],
{8}8/2,6,4/3,1,7/5,6,8/2,8/2,
{1}Cf,
{8}5/2,8,7/4,1,4/3,8,5/6,1,
7/8,5,4/1,8,7/5,2,8/4,6/2,
8/4,1,6/5,8,1/2,4,7/3,8,
7/1,2,6/3,7/2,1/8,4/7,6/5,8,
2/5,4,7/1,5,4/2,8,7/1,4,
6/2,5,4/3,{16}6,2,{8}6,8/7,6/4,1/2,
5/3,8,7/5,1,2/4,8,5/6,1/3,
{24}7,6,5,2,3,4,{16}8,1,8,1,{8}8,7/2,{4}5b/4b,
{8}6/4,7/3,8/2,1,7/5,8,4/2,1,
7/5,3,1/8,6,4/3,1,8/2,6/4,
7/3,5/1,2/6,7,5,8/4,3,5,
6b/2b,8,7/1,{16}6,5,8,1,{8}7,{16}3,4,3,4,
{8}2/5,1,8/7,5,1/6,3,8/2,5,
6/4,1,3,5,2b/7b,8,5b/1b,3,
{16}6,5,{8}6,4b/7b,{16}2,1,{8}2,3b/8b,{16}6,4,6,4,
{8}5h[16:1],5h[16:1],5h[16:1],5h[16:1],5h[16:1],5h[16:1],{4}7b/3b,
2h[4:1],1,8/3,7<5[4:1],
8,1,2,3,
7h[4:1],8,1/6,2>4[4:1],
1,8,7,6,
3h[4:1],4,5/2,6-8[4:1],
5,3-5[4:1],2,{8}1,1,
{4}6,5/7,3,{8}4/2,1h[4:1],
,8,{4}8h[4:1],{8}3,3h[4:1],,4,
{4}5/2<8[8:1],6,7<5[8:1],1,
2<8[8:1],7,6>4[8:1],2,
1-7[8:1],2,3-1[8:1],4,
5-3[8:1],6,7-5[8:1],8,
1>3[8:1],4,5<7[8:1],8,
1>3[8:1],4,5<7[8:1],8,
{8}1h[16:1],1h[16:1],1,1,{4}1,{8}1,1,
,1,{4}1,{8}8h[8:1],6h[8:1],4h[8:1],3,
{4}2<8[8:1],3,4<6[8:1],3,
2<8[8:1],3,4<6[8:1],3,
4h[2:1],5,6h[2:1],5,
4h[2:1],5,6h[2:1],5,
3>1[8:1],4,5<7[8:1],4,
3>1[8:1],4,5<7[8:1],4,
{2}1h[4:1],2h[4:1],
3h[4:1],4h[4:1],
4/5h[4:1],{4}6h[4:1],{8}5,5,
{2}7h[4:1],8h[4:1]/C,
1h[4:1],{4}2h[4:1]/C,{8}4,4,
{2}3h[4:1],5/4h[4:1],
{4}5/4,6,5/4,3,
6/4,7,5/3,2,
8h[8:1],8h[8:1],7h[8:1]/1h[8:1],7h[8:1]/1h[8:1],
{16}E1,E8,E7,E6,E5,E4,E3,E2,D1,D8,D7,D6,D5,D4,D3,D2,
{1}D1f/E1/B8/B1,
{4},,,,,,,,,,,1b,
{8}5/3-8[8:1],2,3/7-3[8:1],6,1/7,2,4/8,7,
5/6-2[8:1],8/1-4[8:1],6,1,5,7,8/3,1,
2<7[8:1],3,2/5-1[8:1],6,4/5,3,2/8,7,
6/3-5[8:1],1/8-3[8:1],3,8,4,6,8/2,7/3,
6/4-1[8:1],5,4/7-3[8:1],8,5/7,4,2/8,7,
4/6-1[8:1],8/2-5[8:1],6,2,8,8,7/1,7/1,
6/2,{24}1,2,3,7,6,5,1,{48},{16}8,1,8,{8}1,7/2,5/4,
8/3,7,5/2,1,7/5,4/2,{4}8b/1b,
{8}2/6-1[8:1],5/3,6/2-6[8:1],3,8/2,7,5/1,2,
4/3-7[8:1],1/8-5[8:1],3,8,4,7,1/6,4/3,
1/7>2[8:1],6,7/4-8[8:1],3,5/4,6,7/1,4/5,
3/6-4[8:1],8/1-6[8:1],6,1,5,8,1/7,2/6,
3/5-8[8:1],4,5/2-6[8:1],1,4/2,5,7/1,2,
5/3-8[8:1],1/7-4[8:1],3,7,1,2,7/3,7/3,
8/1,5/2,7/4,3/1,8/6,5/4,{4}7h[8:1]/2h[8:1],
{8}8b/1b,3,7/5,8/4,{16}2,1,2,1,{4}3b/8b,
{8}1/7<4[8:1],8,7/1-5[8:1],2,1/8,7,6/4,2/8,
3/7-3[8:1],5/1-5[8:1],7,1,6,8/1,7/2,5/4,
3/6-8[8:1],8/1-5[8:1],6/4,1,{16}6,6,,1,{8}8,6/2,
5/3>8[8:1],4,3/7-4[8:1],6,7/4,3,2/7,4/5,
3/6-4[8:1],8/1-6[8:1],6,1,5,3,1/7,2/6,
3/5-8[8:1],4,5/2-6[8:1],1,4/2,5,7/1,3/4,
1/8,4/7,2/5,6/8,1/3,4/5,{4}2h[8:1]/7h[8:1],
{8}1b/8b,6,2/4,1/5,{16}7,8,7,8,{4}6b/1b,
{16}4,5,{8}4,1/8,3/5,8/1,6/4,1/8,5/3,
8/1,7/4,1/8,5/2,8/1,7/4,8/1,2/5,
7/4,8/1,6/2,{16}3,4,{8}2,{16}7,8,{8}6,5/1,
7/3,8/1,{16}3,4,1,5,2,7,4,6,{4}1b,
{16}6,5,{8}6,7/4,5/1,4/3,7/1,6/5,8/2,
7/4,1/8,5/4,7/2,4/1,5/8,7/3,5/1,
{16}2,6,3,4,1,8,2,7,5,6,4,8,1,6,3,4,
{2}5b/2bh[1:1],{32}E5,E6,E7,E8,E1,E2,E3,E4,D5,D6,D7,D8,D1,D2,D3,D4,
{1}D5f/E5/B5/B4,
,,,,,,,5h[1:1],
4h[1:1],
5-8[4:3],
4-1b[4:3],
7h[1:1],
5h[1:1],
4h[1:1],
2h[1:1],
Ch[1:1],
1h[1:1],
3qq6[2:3],
,7h[1:1],
1h[1:1],
Ch[1:1],
4w8[2:1],
{2}5/1h[4:1],{4}2h[4:1],{8}4,4,
3,5,{4}5,{2}4/6h[4:1],
7h[4:1]/C,{4}8h[4:1],{8}1,1,
{2}4h[4:1],4/5h[4:1],
6h[4:1],{4}7h[4:1]/C,{8}1,1,
8,2,{4}2,{2}4/3h[4:1],
{4}5h[4:1],{8}4,5,4,6,{4}6,
{8}4/7h[4:1],,,1h[4:1],,,{4}5h[4:1],
{2}4h[4:1],{4}6/5h[4:1],{8}7,7,
1,8,{4}2h[4:1],4h[4:1],{8}3,3,
{2}5h[4:1],{4}6h[4:1],{8}1,1,
{2}7h[4:1],1/8h[4:1],
{8}2h[4:1],,,5h[4:1],,,{4}3h[4:1],
{1}Ch[2:1],
8>8>1-4<5-8b[2:3],
2h[1:1],
E1f,
{8}4,4,{4}2h[4:1],{8}4,4,{4}4/3h[4:1],
{8}6,6,{4}4h[4:1],{8}5,5,{4}5h[4:1],
{8}3,3,{4}6h[4:1],{8}1,1,{4}7h[4:1],
{8}4,4,{4}4/8h[4:1],{8}1,1,{4}1h[4:1],
{8}4,4,{4}2h[4:1],{8}5,5,{4}5/4h[4:1],
{2}7h[4:1],8,
E1,E2,
4/1h[4:1],2h[4:1],
3h[4:1],4h[4:1],
1/5h[4:1],6h[4:1],
3/7h[4:1],8h[4:1],
4/1h[4:1],6/2h[4:1],
8/3h[4:1],4/5h[4:1],
{1}Cfh[1:1],
{8},,,,,,,,7/1,
6,5/2,{16}3,4,2,4,{8}3,7/1,7/1,
{16}3,4,2,6,5,7,{8}2,1/8,{16}6,2,{8}6,5/3,
7/1,{16}2,6,2,6,{8}2,5/3,7,6/4,1,
2/7,{16}6,5,{8}6,4,{4}7h[8:1]/3h[8:1],8h[8:1]/1h[8:1],
{8}6/2,3,4/7,8,{16}2,1,{8}2,7,4,
6/5,7,1/8,{16}3,4,{8}2,{16}6,5,{8}7,1,
8b/2b,{16}6b,5b,{8}6b,7b/2b,{16}1,8,1,8,{8}1,6,
2-5[8:1],2,7-3[8:1],7,1-5[8:1],1,8,7,
6/2,1,7/8,6,5/2,{16}3,4,2,4,{8}3,
6/1,{16}7,8,{8}7,{16}4,5,{8}3,6/2,{16}8,1,8,1,
{8}7b/2b,5b/4b,8b/1b,3,{16}6,5,{8}7,{16}2,1,3,1,
{8}2,{16}5,4,{8}5,7/3,{16}1b,8b,{8}1b,{16}7b,3b,7b,3b,
{8}7b,1,2/8,7,6/4,{16}2,5,{8}2,8/1,
{16}6,5,{8}7,8h[8:1],2h[8:1],4h[8:1],5,{4}3b/7b,
{16}1,8,1,8,2,7,2,7,3,6,3,6,4,5,4,5,
{2}3b>5[4:1],{4}4bw8b[8:1],Cf,
{8}6/2,3,7/5,{16}1,8,1,8,{8}1,4/2,5,
7/1,{16}3,4,{8}3,8,7/1,3,5/4,5/4,
7/3,{16}2,1,2,1,{8}3,4/8,{16}6,5,{8}7,4,
3/8,2,{4}6h[8:1]/1h[8:1],{8}8,8,6b/2b,6b/2b,
{4}4b/3bh[4:1],E2f,{8}6b,6b,5b/7b,4b/8b,
{1}4b/8b<3b[2:1],
{4}5b/1bh[4:1],{8}8b,5b/7bh[4:1],,3b,{4}4b/1bh[4:1],
7b-3[8:1],1-6[4:1]*-4[4:1],{8},,,,7/3,
{16}1,8,{8}2,{16}6,5,6,5,{8}7,8/4,2,
6/1,{16}5,4,{8}5,{16}2,1,3,1,{8}2,8/4,{24}7,6,5,
{8}4b/1b,{16}2,6,{8}2,7,4b/8b,7,5b/2b,3,
7b/1b,4,6b/2b,{16}1,8,1,8,{24}2,3,4,7,6,5,1,,,{8}2/8,
6/4,8/2,6,5/1,3,8/4,6/2,
{16}1,8,{24}2,3,4,7,6,5,1,{48},{16}8,{32}2,3,4,5,7,6,5,4,1b,2,3,4,8b,7,6,5,
2b,3,4,5,6,7,8,1,2,3,4,5,6,7,8,1,7b/2b,6,5,4,3,2,1,8,7,6,5,4,3,2,1,8,
{1}3b/7b-3[2:1],
{4}6h[4:1],5,7/4,3<5[8:1],
8,7,6/2,3,
8h[4:1],1,2/7,6,
5h[8:1],5h[8:1],6h[8:1]/4h[8:1],6h[8:1]/4h[8:1],
2h[4:1],{8}4,4,{4}3h[4:1],6,
{8}4,4,5,4,{4}6,7/3,
8h[4:1],{8}5,5,{4}6h[4:1],4,
3h[8:1],3h[8:1],4h[8:1]/2h[8:1],4h[8:1]/2h[8:1],
6>4[8:1],4,3,2h[4:1],
8h[8:1],8h[8:1],7h[8:1]/1h[8:1],7h[8:1]/1h[8:1],
3<5[8:1],5,6,7h[4:1],
{8}8,8,6,6,{4}1,5/2,
3h[4:1],{8}6,6,{4}4h[4:1],5,
6h[8:1],6h[8:1],7h[8:1]/5h[8:1],7h[8:1]/5h[8:1],
2h[4:1],1,3/8,{8}4,4,
{4}6h[4:1],5,{2}3h[4:1]/7h[4:1],
2h[2:1],{8}1,,,6h[8:3],
,,{4}5,{2}7/4,
3h[2:1],{8}4,,,6h[8:3],
,,{4}5,{2}7/4,
8h[2:1],{8}1,,,3h[8:3],
,,{4}4,{2}5/2,
6h[2:1],{8}5h[8:3],,,6,
,,{4}7/4,{8}5,5,{16}3,4,{8}3,
{2}5/2h[4:1],{8}1,,,6,
{4}6h[4:1],5,{2}7/4,
2h[2:1],{8}4,,,6h[8:3],
,,{4}5,{2}7/4,
{8}1h[2:1],,,,,,,6h[8:3],
,,,,{2}1V72[4:9]*V74[4:9],
E
