&title=Eltaw
&artist=Fl00t
&first=0.1
&des=ヤカルパ vs. 9V_Y2-6
&des_5=
&lv_5=14
&inote_5=(193){4},,,,,,,,{1}8b/1b>8[2:7],
,,,1/8<1[2:7],
,,,2h[4:15]/8v5-7[2:7],
,,,7h[4:15]/1v4-2[2:7],
,,,{8}5b/4h[8:13],
E6,E7,E8,,E1,E8,E7,
E6,A5,A6,A7,,E8/E7,{4}4/B7/B8,
{8}E5,E6,E7,E8,,E1,E8,E7,
E6,A5,A6,A7,,4/E8/E7,{4}4/B7/B8,
{8}4b/5h[8:13],E4,E3,E2,,E1,E2,E3,
E4,A4,A3,A2,,E2/E3,{4}5/B2/B1,
{8}E5,E4,E3,E2,,E1,E2,E3,
E4,A4,A3,A2,,5/E2/E3,{4}5/B2/B1,
{8}6/3,6,4,5h[4:1],,3,4,4,
6,5,4,4h[4:1],,5,{4}5h[4:1],
{8}3,4,5,4h[4:1],,5,4,4,
6,5,4,5h[4:1],,3,{4}3,
{8}7/2,7,1,8h[4:1],,2,1,1,
7,8,1,1h[4:1],,8,{4}8h[4:1],
{8}2,1,8,1h[4:1],,8,1,1,
7,8,1,7,{16}2h[16:1],8h[16:1],2h[16:1],8h[16:1],2-6[8:1],8h[16:1],2h[16:1],8h[16:1],
{4}2b,{8}5/7,5/7h[4:1],,4,3,2,
1>4[8:1],8,7,6h[4:1],,5,{4}4h[8:1]/7h[8:1],
{8}3h[4:1],4,5,2>5[8:1],,5,6,7,
8<5[8:1],1,2,3h[4:1],,4,{4}2h[8:1]/5h[8:1],
{8}6h[4:1],5,4,7<4[8:1],,4,3,2,
1>4[8:1],8,7,6h[4:1],,5,4/7,3,
5/2-5[8:1],2,5,6,,7-4[8:1],4,7,
{16}3,2,1,8,4,3,2,1,5<8[8:1],4,3,2,{8}5,1,
2-4[8:1],4,2,5-1[8:1],,5,4,3,
2-4[8:1],4,2,5-1[8:1],,4,3,2,
8-6[8:1],1,8,2-4[8:1],,5,6,7,
8-6[8:1],1,8,2-4[8:1],,5,6,7,
8-6[8:1],8,1,2-4[8:1],,5,6,7,
8-6[8:1],8,1,2-4[8:1],,5,6,7,
8-6[8:1],8,1,2V41[4:1],,4,5,6,
{16}8,1,2,3,7,8,1,2,6,7,8,1,2,3,4,5,
{1}6/2h[1:1],
8bV64[1:1],
4-8[1:1],
{2}8<5[2:1],5>2[2:1],
{1}2<6[1:1],
{2}6pp1[1:1],5,
{1}1>5[1:1],
{2}5-1[2:1],7,
{12}7h[1:1]/3h[8:7],{4},,,{16},{48},{24}2,1,
{1}8-4[2:1],
{12}2h[1:1]/6h[8:7],{4},,,{16},{48},{24}7,8,
{1}1-5[2:1],
{12}1h[1:1]/5h[8:7],{4},,,{16},{48},{24}6,7,
{1}8pp5[2:1],
{12}8h[1:1]/4h[8:7],{4},,,{16},{48},{24}3,2,
{1}1qq4[2:1],
{8}7b/2b,3,4,4h[4:1],,7,6,5,
5,7,6,6h[4:1],,3,{4}3h[4:1],
{8}E7/B6,,,3/E8,,,{4}4/E6,
{8}E7,B6,B5,E5,,B6/B3,{4}C,
{8}7/E3,,,6/E2,,,{4}5/E4,
{8}E3,B3,B4,E5,,B3/B6,{4}C,
{8}8/E2,,,1/E8,,7,6,3,
3,4h[2:1],,5,,5,{4}6/3,
{8}6b/3b,2,1,1h[4:1],,6,7,8,
8,6,7,7h[4:1],,2,{4}2h[4:1],
{8}E7/B7,,,2/E6,,,{4}1/E8,
{8}E8,B8,B1,E2,,B7/B2,{4}C,
{8}6/E3,,,7/E4,,,{4}8/E2,
{8}E2,B1,B8,E8,,B2/B7,{4}C,
{8}5/E4,,,4/E6,,,{4}7/2,
8b/1b,,,6/2>5[8:1],
{24}6b/2b,7,8,1h[8:1],,,{8}5h[8:1],{16}8,4,7,3,{8}6,2>5[8:1],2,
{4}6h[4:1],{8}1h[8:1],{16}4,2,5,3,{8}6,{4}5h[8:1]/7h[8:1],
{16}3,4,2,4,{8}1,{16}7,8,6,8,{8}5,1-4[8:1],1,
{4}5w1[8:1],5,{8}3/7,3/7,5,4,
2b/6b,3,4/7h[8:1],{16}5,6,4,7,{8}3,2/4,5,
2/6,3,4/7h[8:1],{16}5,6,4,7,{8}3,2/4,5,
{16}1V75[8:1],2,3,4,{8}1,3,{16}2V86[8:1],3,4,5,{8}2,4,
3h[8:1],{16}5,4,{8}6h[8:1],{16}3,4,{8}2w6[8:1],3/8,{4}Cfh[4:1],
{8}B7/B6/B5/E8/E5,,,B2f/B3/B4/E2/E5,,,{4}A7/D7/A6f/D6/A5,
{16}2h[16:3],,,3h[16:3],,,{8}4h[4:1],{32}E5,E4,E3,E2,E1,E8,E7,E6,{4}E5h[8:1],
6-1[8:1]/2-5[8:1],6b/2b/Cf,{16}4,3,2,1,{8}8/4,5,
{4}6<1[8:1]/2>5[8:1],2/6,{16}8,7,6,5,{8}4/1,2,
3-5[8:1],4,3,6-4[8:1],,6,3,2,
1-4[8:1],4,1,5h[8:3],,3,2,1,
{4}4-7[8:1]/1-4[8:1],1/4,{8}8-5[8:1],5,{4}4h[8:1],
A6h[8:1]/A3h[8:1],E6h[8:1]/E4h[8:1],{8}B4,B5,{4}Ch[8:1],
{16}8,7,8,7,1,6,1,6,2,3,4,5,6,7,8,1,
5/2,6,7,8,1,2,3,4,2,3,4,5,3,4,5,6,
4,7,4,7,3,8,3,8,1,2,3,4,5,6,7,8,
1/5,4,3,2,1,8,7,6,8,7,6,5,7,6,5,4,
3b/7b,2,8,2,8,1,7,1,7,6,5,4,3,2,1,8,
7/3,4,5,6,7,8,1,2,3,1,2,3,4,2,3,4,
5,7,5,7,4,8,4,8,3,7,3,7,2,8,2,8,
1,2,3,4,5,4,3,2,5/1,6,7,8,{8}3/1,2/8,
{24}8b/1b,7/2,3/6,4V62-8[8:27]/5V37-1[8:27],{1},,,{4},,,{16},{48},{8}6h[8:3],
,,C,,,,,3h[8:3],
,,C,,,,,{1}8h[8:15],
1h[8:7],
E
