&title=NIGHT OF FIRE
&artist=senya
&first=0
&des=DAWNX
&lv_5=14
&inote_5=(155)
{1},,,
{16}
18,,6,5,7,,4,5,2,,6,5,7,,4,5,2,,
6,5,7,,4,5,2,,6,5,7,,4,5,3,,
3,4,2,,5,4,7,,3,4,2,,5,4,7,,
7,5,7,,46,,35,,2,5,2,,8,4,
8-6[8:1],,4,4,8-2[8:1],,5,5,8,,4h[8:1],,
8,,7,,1-7[8:1]/6,,5,5,1-3[8:1],,4,4,1,,5h[8:1],,
2,,3,,48,,7,5,6,,2,4,3,,3,1,3,,8,,
3,7,3,7,2,6,2,6,1,5,1,5,8,1,2,3,4h[13:16]/8h[13:16],,,,,,,,,,,,,,,,,,,,,,,,
8-3[8:1]/4-7[8:1],,,,48,,,,
16,,6,8,6,,6,1,6,,6,2,6,,6,3,6-1[8:1],,6,,5-2[8:1],,5,,7,,6,,45,,
3,4,3,,3,1,3,,3,8,3,,3,7,3,,3,6,3-8[8:1],,3,,4-7[8:1],,4,,3,,2,,18,,
8,1,8-6[8:1],,4,4,8-2[8:1],,5,5,8,,4h[8:1],,
8,,7,,6,,6,5,6,,5,6,4,5,3h[8:1],,4h[8:1],,2,,1,,
7,8,7,,6,5,6,4,6,,45,,36,,
2,1,2,1,3,4,3,4,1,8,2,7,3,6,4,5,4h[2:1],,,,,,,,8z4[4:1],,,,,,,,
{8}
1-6[8:1],,3/1-4[8:1],,17,7h[2:1],5,,4,
3-7[8:1],4,3,5-2[8:1]*-8[8:1],5,,,,
8-4[8:1],3,8,1-5[8:1],6,1,
8qq5[8:3],,4,3,2,1-4[8:1]*-6[8:1],,1,,
8-3[8:1],,6/8-5[8:1],,82,2h[2:1],4,,5,
6-2[8:1],5,6,4-7[8:1]*-1[8:1],4,,,,
1-5[8:1],6,1,8-4[8:1],3,8,
1pp4[8:3],,5,6,7,8-5[8:1]*-3[8:1],,8,,
4-7[8:1],,2/4-1[8:1],,46,6h[2:1],8,,1,
2-6[8:1],1,2,8-3[8:1]*-5[8:1],8,,,,
5-1[8:1],3,5,4-8[8:1],6,4,
5pp8[8:3],,1,2,3,4-1[8:1]*-7[8:1],,4,,
5-2[8:1],,7/5-8[8:1],,53,3h[2:1],1,,8,
7-3[8:1],8,7,1-6[8:1]*-4[8:1],1,,,,
4-8[8:1],6,4,5-1[8:1],3,5,
4qq1[8:3],,8,7,6,5h[8:1],
{16}
6,7,8,1,2,3,4b-1[8:1]/8b-5[8:1],,,,4b/8b,,,,
26,,2/6h[8:1],,
{32}
1,8,7,6,5,4,3,2,
{8}
1h[2:7],,,,,,,,
7,7,6,,
{16}
7,,7,6,5,,,,
{8}
6,6,5,,5,5,4,,4,4,3,,
{16}
3,4,5,6,1,2,3,4,
{8}
8h[1:2],,1,,1,1,2,,2,2,3,,3,
{16}
2,3,4,,3,2,1,,
7,8,7,,56,,3,4,3,4,1,8,1,8,
3,3,4,4,5,5,6,6,1,8,1,8,2b/7b,,,,
{8}
37,7h[4:1],5,4,4h[2:1],8,8,,7,
{16}
6,5,6h[8:1],,5h[8:1],,4,,4h[8:1],,3h[8:1],,
2h[8:1],,1h[8:1],,8h[8:1],,7h[8:1],,
6h[2:1],,5,,5,,4,,3,,2,1,8,7,6,5,4,3,2,1h[4:1],,,
4,5,6,7,8h[1:1],,
5,,4,,3,2,1,,2,,3,,,,
1,2,3,4,8,1,2,3,7,8,1,2,6,7,8,1,2h[2:1]/6,,6,,5,,,,
4,,4,,5,,4,4,5b/4h[4:1],,,,,,,,
8,8,8,8,8,8,8,8,
{8}
8-3[8:1],8,5-1[8:1],5,8-6[8:1],8,5h[8:1],,
7-3[8:1],7,2-6[8:1],2,1-5[8:1],1,8-4[8:1],8,
7h[2:1],,5,,4,3,25,1,
{16}
7,8,7h[8:1],,1h[8:1],,3h[8:1],,
1,3,1,4,1,5,1,6,
{8}
1-6[8:1],1,4-8[8:1],4,1-3[8:1],1,4h[8:1],,
2-6[8:1],2,7-3[8:1],7,8-4[8:1],8,1-5[8:1],1,
2h[2:1],,4,,5,6,74,
{16}
8,1,2/7-3[8:1],,,,
{8}
1s5[4:1],,,,,,
3h[8:1]/6h[8:1],,3h[8:1]/7,7h[8:1],3h[8:1],8h[8:1],3h[8:1],1h[8:1],
3h[8:1],8,3h[8:1]/8,8h[8:1],3h[8:1],7h[4:1],3,4,
5-1[8:1],5,8-4[8:1],8,2-7[8:1],2,6,6,
1v4[8:1],8v5[8:1],1,8,2h[8:3],6,7,8,
7-1[8:1],7,2-6[8:1],2,5-3[8:1],5,
2-6[8:1],2,1-5[8:1],1,8-4[8:1],8,7-3[8:1],7,6-2[8:1],6,
5h[4:1],,1,2h[8:1]/6,6,8h[8:1]/4,3,2h[8:1]/5h[8:1],,
48,35,16,27,8h[4:1]/3,2,
{32}
1,2,3,4,
{8}
5h[8:1]/6,8,4h[8:1]/3,1,
7qq4[8:3]/8,7,1,2,3,
2-6[8:1],5,2,
7-1[8:1]*-5[8:1],7,,,34,
3-7[8:1],4,3,6-2[8:1],5,6,4h[8:1],5pp8[4:1],4,3,2,1w5[8:1],,1,,
4h[8:1]/3,1,5h[8:1]/6,8,
2pp5[8:3]/1,2,8,7,6,
7-3[8:1],4,7,
2-8[8:1]*-4[8:1],2,,,65,
6-2[8:1],5,6,3-7[8:1],4,3,5h[8:1],4qq1[4:1],5,6,7,8w4[8:1],,8,,
8h[8:1]/7,5,1h[8:1]/2,4,
6pp1[8:3]/5,6,4,3,2,
3-7[8:1],8,3,
6-4[8:1]*-8[8:1],6,,,21,
2-6[8:1],1,2,7-3[8:1],8,7,1h[8:1],8qq5[4:1],1,2,3,4w8[8:1],,4,,
1h[8:1]/2,4,8h[8:1]/7,5,
3qq8[8:3]/4,3,5,6,7,
6-2[8:1],1,6,
3-5[8:1]*-1[8:1],3,,,78,
7-3[8:1],8,7,2-6[8:1],1,2,8h[8:1],1pp4[4:1],8,7,6,
{16}
5,6,7,8,15,2,3,4,1b/5,,2,3,4/8b,,7,6,1b/5,,2b/6h[4:1],,8,1,2,3,
{8}
48,57,4h[4:1]/8,1,
{16}
8,7,6,5,48,1,2,3,8,6,8,3,1,3,5,7,5,2,4,2,1,8,7,6,
{8}
15,42,5h[4:1]/1,8,
{16}
1,2,3,4,51,8,7,6,1,3,1,6,8,6,4,2,4,7,5,7,8,1,2,3,
{8}
48,13,4/8h[4:1],5,
{16}
4,3,2,1,84,5,6,7,4,2,4,7,5,7,1,3,1,6,8,6,5,4,3,2,
{8}
15,68,1h[4:1]/5,4,
{16}
5,6,7,8,15,4,3,2,5,7,5,2,4,2,8,6,8,3,1,3,4,5,6,7,
{8}
4h[8:1]/8h[8:1],,2h[8:1]/6h[8:1],,
{24}
2b/6b,37,48,
{8}
1h[8:1]/5h[8:1],,,
{32}
4bq6[2:3]/8bq2[2:3],37,26,15,
E
