&title=回る空うさぎ
&artist=Orangestar
&first=0
&des=月が輝く夜
&clock_count=4
&lv_6=12+
&inote_6=(120)
{1},
,
{8}
6h[4:6]/5,,5,,5,,5,,5^7[8:1],,,,5^3[8:1],,,,
3h[4:6]/4,,4,,4,,4,,4^2[8:1],,,,4^6[8:1],,,,
7h[4:6]/8,,6,,8,,6,,8^6[8:1],,,,5^3[8:1],,,,
2h[4:6]/1,,3,,1,,3,,1^3[8:1],,,,4^6[8:1],,3,,
75,6,45,6,75,8,17,8,12,3,24,1,3/4^1[8:1],5,6,7,68,7,56,4,35,2,34,2,13,2,18,7,8^5[8:1],1,2,3,
24,3,54,3,24,1,82,1,87,6,75,8,6/5^8[8:1],4,3,2,31,2,43,5,64,7,65,7,86,7,81,2,1^4[8:1],8,7,6,
5<1[4:1],,4,,3,,2,,1>5[4:1],,6,,7,,8,,1<5[4:1],,2,,3,,4,,5b>1[4:1],,8b,,7b,,6<3[4:1],,
3<8[4:1],4,4,1,2q5[16:6],2,6,6,7>4[4:1],7,4<1[8:2],4,2,2,3,4,5^2[8:1],,1^6[8:1],,5p1[8:1],5,7,7h[4:1],,8p4[8:1],8,1^6[8:1],1,,5<2[4:1],,
2>7[4:1],3,3,8,1qq4[16:6],1,5,5,6<3[4:1],6,3<8[8:2],3,1,1,2,3,4^1[8:1],,8^5[8:1],,4p8[8:1],4,6,6h[4:1],,5q1[8:1],5,4>6[32:9],4,,5h[4:1],,
4p8[8:1]*>8[8:1],,,,3p7[8:1]*>7[8:1],,,,,8p4[8:1],8,1>7[16:5],1,,8h[4:1],,1q5[8:1]*>5[8:1],,,,2p6[4:3]*>6[4:3],,,,,,,,,,,,
75,6,45,3,24,3,45,6,75,8,17,2,13,2,34,5,
46,3,24,3,45,6,57,4,24,1,82,7,86,5,4>7[4:1],,
7<2[4:1],6,6,1,8qq4[16:6],8,4,4,3>6[4:1],3,6>1[8:2],6,8,8,7,6,5^8[8:1],,1^4[8:1],,5q3[32:5],5,4,4h[4:1],,5q2[32:5],5,6^1[8:1],6,,3>6[4:1],,
6>1[4:1],5,5,8,7pp4[16:6],7,3,3,2<5[4:1],2,5>8[8:2],5,7,7,6,5,4^7[8:1],,8^3[8:1],,4q5[4:1],4,2,2h[4:1],,6q3[32:5],6,7>5[32:9],7,,6h[4:1],,
8bq4[8:1],7,6^1[8:1],5,4bq8[8:1],3,2^5[8:1],1,7bqq1[16:6],7,4,3,2bqq5[16:6],2,8b,7,6b<3[4:1],,3>6[4:1],,6bpp5[16:5],6,4,3h[4:1],,4^7[8:1],4b,3q8[32:5],3b,,7h[4:1],,
1bp5[8:1],2,3^8[8:1],4,5bp1[8:1],6,7^4[8:1],8,2bpp8[16:6],2,5,6,7bpp4[16:6],7,1b,2,3b>6[4:1],,6<3[4:1],,3bqq4[16:5],3,5,6h[4:1],,5p1[8:1],5b,6>8[32:9],6b,,2h[4:1],,
6bq2[8:1]*<2[8:1],,,,5q1[8:1]*<1[8:1],,,,,4q8[8:1],4,3<1[32:9],3,,7h[4:1],,3p7[8:1]*>7[8:1],,,,4<8[4:4]*>8[4:4],,,,,,,,,,,1,
24,3,45,6,75,8,17,8,12,3^8[8:1],4,5,6^3[8:1],6,7,8,12,8,17,8,75,6,45,3,24,1,28,1,78,6,57,6,
45,6,75,8,17,8,12,3,24,5,46,5,67,8,17,8,1^7[8:1],,2,,3^1[8:1],,4,,5^3[8:1],,6,,
{48}7,,,,,,,8,,,,,,,1,,,,,,,2^7[4:5],,,
