&title=I Wanna
&artist=静香(CV.長谷川育美)「ワールドダイスター 夢のステラリウム」
&first=0.02
&lv_5=14
&des_5=ARcana★X
&inote_5=
(200){4},{2},{8}6h[4:1],5,
4h[4:1],5,6h[8:3],5,,4h[8:1],5,4,
5,4h[8:3],,B6/B5,{4}B5/B6,{8}3h[4:1],4,
5h[4:1],4,3h[8:3],4,,5h[8:1],4,5,
4,5h[8:3],,B3/B4,{4}B4/B3,{8}7h[4:1],8,
1h[4:1],8,7h[8:3],8,,1h[8:1],8,1,
8,1h[8:3],,B7/B8,{4}B8/B7,{8}1,2,
3,4,5,6,7,1h[16:7]/8h[16:7],{2},{16}1,
8,1,8,1-5[8:1],8,1,8,{4}1b,
{16}3,4,{8}3,{12}2/4,,5/3,,6/4-8[8:1],{6},4/6,
{8},1,7/1,8,{4}2/8-4[8:1],2/8,
{16}6,5,{8}6,{12}7/5,,4/6,,3/5-1[8:1],{6},5/3,
{8},1h[16:5],{16}2x,3x,4x,5x,6x,7x,1,8,{4}1-5[8:1],
1b/8b,{16}4/6,{8},{16}5/3,{8},4/2-6[8:1],,1/2,
,7,7/8,8/1,{4}2-5[8:1]/1-5[8:1],1b/2b,
{8}6/4,7/3,{12}8/2,,8/1,,1,8,1,8,1,
8,1,8,{48}1,{24},{48}8,{24},{16}1,8,1-5[8:1],8,1,8,{4}1,
6,6,6,6/5>2[2:1],
6,6,6,3,
3,3,3/4<7[2:1],3,
3,3,{8}3,5,{16}4,5,{8}4,
{4}2h[4:1],B3/B4,{8},4,{16}5,4,{8}5,
{4}7h[4:1],B6/B5,{8}1,1h[12:19],{4},,,{8}B5,
Ch[12:7],{2},{24}2x/B6,
3x/B7,4x/B8,5xh[8:3]/B1,{3},{8}7,5,
6,4,5,3,{4}4<8<5[4:3],3,
3,3,3,5h[4:1],
{8}2,5,3,5,4,6,{4}5>1>4[4:3],
6,6,6,6h[4:1],
{8}4,3h[4:1],5,6h[4:1],3,2h[8:3],{4}6<2<6[8:5],
,{8}B2,B3,{4}B4,{8}3,5,
2,4,{4}3,{8}3,3h[4:1],{4},5,
{16}3,4,{8}3,{16}6,5,{8}6,3/7h[2:1],3,
3,3,{16}3x,2x,{8}7/1xh[8:3],7,7,{16}7x,6x,{8}1/5xh[8:3],
1,1,{16}1x,2x,{8}5/3xh[4:1],5,{16}5,6x,{8}3/7xh[2:1],3,
3,3,{16}3x,2x,{8}7/1xh[8:3],7,7,{16}7x,6x,{8}1/5xh[8:3],
1,1,{16}1x,2x,{8}5/3xh[4:1],5,{16}5,6x,{8}3/7xh[2:1],3,
3,3,{16}3,2,{8}7/1h[8:3],7,7,{16}7,6,{8}1/5h[8:3],
1,1,{16}1,2,{8}5/3h[4:1],5,5b,5/4,4x/2x,
3/4,5x/7x,6/5,6x/3x,5/4,5h[8:1]/4h[8:1],,5b/6b,
{16},4b/3b,{8},{4}8b/1b,1-4[16:1]/8-5[16:1],{32}1b/8b,Cf/B2/B3/E3/B7/B6/E7/B8/B1/B5/B4,{16},,,{4}4x/2x,
{12}5/3,,6/4,,5/7,,{8}5-2[8:1]/7-2[8:1],7/5,
{4}5/7,{12}4x/6x,,3/5,,4/2,,{8}4-7[8:1]/2-7[8:1],2/4,
{4}4/2,{8}1x/2x,1/8,8/7,8/1,{4}2/1-5[8:1],
1/8-4[8:1],8/7-3[8:1],{2}8/7b,
{4}1>5[4:1],{8}5,6,7,8h[8:3],{4},5>1[4:1],
{8}8,7,{4}6,{8}1/2>5[32:3],1/2,
{32}1/2b,8x,7x,6x,{8},8/7<4[32:3],8/7,{32}8/7b,1x,2x,3x,{8},{16}3x,7,3,7,
2,6,2,6,1,5,1,5,1,5,1,5,{4}1w5[8:1],
1b,{16}2,1,2,1,5,6,5,6,3,4,3,4,
8,7,8,7,2,1,2,1,4,5,4,5,8,7,8,7,
4,5,4,5,2,1,2,1,2-6[8:1],1,2,1,{4}2<7[8:1]*>5[8:1],
2-6b[8:1],2w6[8:1],{2}2b,
{4}1>4[8:1],6,7,8<5[8:1],
2w6[8:1],2b,{16},8,{8},{4}8h[4:1]/1-4[8:1],
1b,{16}5,4,5,4,5,6,7,8,6,7,8,1,
7,8,1,2,8,1,2,3,{4}4/6,{8}6/5,6/5,
4/7,4/7,8/3,8/3,2-5[8:1]/1-6[8:1],1/2,{16}2b/1b,Cf/B3/B4/B8/B7/E8/E4/B1/B2/B6/B5,{8},,,{4}1<6[8:1]*>4[8:1],
1b,2/8,
{16}3,4,{8}3,{16}4/2,{8},{16}3/5,{8},5-2[8:1]/6-1[8:1],,6/5,
,4/6,3/7,2/8,{4}4b/6b,5/7,
{16}6,5,{8}6,{16}5/7,{8},{16}6/4,{8},4-7[8:1]/3-8[8:1],,3/4,
{4},{16}1,2,3,4,8,7,6,5,4-8[8:1],5,4,5,
{4}4b,{16}4/2,{8},{16}3/5,{8},5-2[8:1]/6-1[8:1],,6/5,
,4/6,3/7,2/8,{4}4b/6b,2h[4:1],
{16}4,3,{8}4,{16}3,4,{8}3,{16}6,5,{8}6,{16}4,5,4,5,
4,5,4,5,4,5,4b,5,3b,5,2b,5,{8}1b-4[8:1],1x,
{4}8/1x,{8}1/8-5[8:1],8,{4}8/1,{8}1/2-5[8:1],2,
{4}2/1,{8}8/7-4[8:1],7,{4}7/8,{8}4x/3-8[8:1],3,
{4}3/4,{8}5/6-1[8:1],6,{4}6/5,{8}5/4-1[8:1],4,
{4}4/5,{8}1x/8-5[8:1],8,{4}8/1,{16}2,1,2,1,
{4}2-6[8:1],2,,{16}7,8,7,8,
{4}7-3[8:1],7,{8}2/7,1h[8:3]/8h[8:3],{4},,,{8}3/6,
4h[8:3]/5h[8:3],{1},{8}8>3[8:1],
7,
6,5,4<7[8:1],3,2,1,8>3[8:1],7,
6,5,4<7[8:1],3,2,1h[8:11],{4},{8}B6,
B7/B8,B5,B4/B3,{4}C,Ch[4:1],
{8},,,,,7,8,7,
{4}8-4[8:1],8,{8},2,1,2,
{4}1-5[8:1],{8}1,4,,5/3,,3,
5,4,6,5pp1[8:7],6,5,{1},{16}6,
5,{8}6,
4,3,{16}2,1,{8}2,8,7,{16}5,6,{8}5,
4,3,{16}1,2,1,2,1-5[8:1],2,{8},{4}1b,
{8}2,3,{4}4qq1[8:3],5h[8:1],{8}6,7,
8qq5[8:3],1x,{4}1xh[4:1],,{16}3,4,{8}3,
5,6,{16}7,8,{8}7,1,2,{16}4,3,{8}4,
5,6,{16}8,7,8-4[16:1],7,8,7,{8}8b,,4/3,
2,5,{12}4/3,,5/4,,6/5,,6/5,,4b/3b,
,5b/6b,,{16}8b/1b,{8},{32}1x,8x,2x,7x,3x,6x,4x,5x,{48},,,,,,,{6}5b/6b,
4b/3b,1b/8b,{48},,,,,{16}1-4[8:1]/8-5[8:1],,,,1/8,{4}Cf/B2/B3/E3/B1/B8/B7/B6/E7/B5/B4,
4x/2x,{12}5/3,,6/4,,5/7,,{8}5-2[8:1]/7-2[8:1],7/5,
{4}5/7,{12}4x/6x,,3/5,,4/2,,{8}4-7[8:1]/2-7[8:1],2/4,
{4}4/2,{8}1x/2x,1/8,8/7,8/1,{4}2/1-5[8:1],
1/8-4[8:1],8/7-3[8:1],{2}8/7b,
{4}1>5[4:1],{8}5,6,7,8h[8:3],{4},5>1[4:1],
{8}8,7,{4}6,{8}1/2>5[32:3],1/2,
{32}1/2b,8x,7x,6x,{8},8/7<4[32:3],8/7,{32}8/7b,1x,2x,3x,{8},{16}3x,7,3,7,
2,6,2,6,1,5,1,5,1,5,1,5,{4}1w5[8:1],
1b,{16}2,1,2,1,5,6,5,6,3,4,3,4,
8,7,8,7,2,1,2,1,4,5,4,5,8,7,8,7,
4,5,4,5,2,1,2,1,2-6[8:1],1,2,1,{4}2<7[8:1]*>5[8:1],
2-6b[8:1],2w6[8:1],{2}2b,
{4}1>4[8:1],6,7,8<5[8:1],
2w6[8:1],2b,{16},8,{8},{4}8h[4:1]/1-4[8:1],
1b,{16}5,4,5,4,5,6,7,8,6,7,8,1,
7,8,1,2,8,1,2,3,{4}4/6,{8}6/5,6/5,
4/7,4/7,8/3,8/3,2-5[8:1]/1-6[8:1],1/2,{16}2b/1b,Cf/B3/B4/B8/B7/E8/E4/B1/B2/B6/B5,{8},,,{4}1h[2:1],
,5h[2:1],
,2,,,,3,
,,,4,
,,,4-8[8:3],
{8},5,{4}5h[4:1],
,5-1[8:3],{8},4,{4}4h[4:1],
{2},{4}1pp4b[1.35##0.75],8qq5[1.05##0.75],
{2},{8}1/8,8/1,,,,,,,,3,
2/1,8,
7,6,5/4,3,2,1,7/8,6,
5,4,3/2,1,8,7,5/6,7,
8,1,2/3,4,5,6,7/8,1,
2,3,{4}4h[8:1]/5h[8:1],{8},2,{4}8h[4:1],
{2}1,{8}1h[4:1],{4},{8}5,
{4}5,3,6,4,
{8}5,4,,4,{2}5h[4:3],
,{8}4/3,2,3/4,5,
3/4,2,4/3,5,3/4,2,4/3,5,
4/3,2,{4}3-8[8:1]/4-7[8:1],4/3,{8}5/6,7,
6/5,4,6/5,7,5/6,4,6/5,7,
5/6,4,5/6,7,{4}6-1[8:1]/5-2[8:1],5/6,
{8}8,7,3,6/4,6/4,{4},{8}5h[8:1]/6h[8:1],
,5/4,3/4,3/2,1/2,1h[8:5]/8h[8:5],{4},,,1-4[8:1]/8-5[8:1],
8/1,
{8}3/6,3h[4:1]/6h[4:1],{4},3-8b[8:1]/6-1b[8:1],{8}6b/3b,D1f,
{4},,,,,,,3,
3,3,3,6,
6,6,6,{8}4,4,
5,5,4,5,4,5,{16}4,5,4,5,
4,5,{8}4,4/5,3/6,{4}3h[8:1]/6h[8:1],{8}3<6[8:1],2,
1,8,7>2[8:1],6,5,4h[8:3],{2},{16}6,
5,{8}6,{16}3,4,{8}3,6/2h[2:1],6,
6,6,{16}6x,7x,{8}2/8xh[8:3],2,2,{16}2x,3x,{8}8/4xh[8:3],
8,8,{16}8x,7x,{8}4/6xh[4:1],4,{16}4,3x,{8}6/2xh[2:1],6,
6,6,{16}6x,7x,{8}2/8xh[8:3],2,2,{16}2x,3x,{8}8/4xh[8:3],
8,8,{16}8x,7x,{8}4/6xh[4:1],4,{16}4,3x,{8}6/2xh[2:1],6,
6,6,{16}6,7,{8}2/8h[8:3],2,2,{16}2,3,{8}8/4h[8:3],
8,8,{16}8,7,{8}4/6h[4:1],4,4,4/5,5x/7x,
6/5,4x/2x,3/4,3x/6x,4/5,4h[8:1]/5h[8:1],,4b/3b,
{16},5b/6b,{8},{4}1b/8b,1-5[8:1],{16}8b/1b,Cf,{1},,{4},,,{8},{4}1-3[8:1]/8-6[8:1],
1/8,1-5[8:1]/8-4[8:1],8/1,1>4[8:1],
{8}4,5,6,7,{2}8<5[8:1],
{8}4,3,2,1,{4}1>4[8:1]/8<5[8:1],{48}8b/1b,D2/D8,A2/A7,D3/D7,A3/A6,D4/D6,{8}A4f/A5f,
{4},,,{16}3,7,3,7,
2,6,2,6,1-5b[16:1],5,1,5,{4}1b,{24}4-8[8:1],5,4,5,4,5,
{4}4b,{16}2-6[8:1],1,2,3,{8}2,{32}A1,D1,A8,D8,{4}A7f,
{24}1-5[8:1],8,1,8-6[8:1],1,8,{8}1b,8b-4[8:1],,{32}8b/D8,A7,D7,A6,{4}D6f,
7-3[8:1],{8}7/5-1[8:1],5,5,7,6b/5b,{16}3,4,
{8}2,{16}6,5,{8}7,{16}3,4,3,4,{8}3,{4}1b/8b,
1h[4:1],2h[4:1],{8}3h[4:1],4,{4}4h[4:1],
5h[4:1],6h[4:1],,{8}8/7<4[32:3],8/7,
{32}8/7b,1x,2x,3x,{8},1/2>5[32:3],1/2,{32}1/2b,8x,7x,6x,{8},{16}2,7,4,5,
1,7,3,6,8,6,2,5,{32}3,4,3,4,{8}3,3x/7x,3/7,
2/6,2/6,1/5,1/5,8/4,8/4,{4}8h[4:1]/4h[4:1],
{8},8/4b,8V62b[4:3]/4bV62[4:3],4b/8,{2}8/4b,
,{16}3,5,4,5,3,5,4,5,
3,5,4,5,{32}3,2,1,8,7,6,5,4,{4}3-8[8:1]/7-4[8:1],3b/7b,
{16}2,4,{8}3,{16}4/8,{8},{16}7/3,{8},2-5[8:1]/6-1[8:1],,6/2,
,8,6/5,4,{4}2/1,6/2,
{16}7,5,{8}6,{16}5/1,{8},{16}2/6,{8},7-4[8:1]/3-8[8:1],,3/7,
,1,{16}3/4,5,6,7,8,1,2,3,4-8[8:1],3,4,3,
{4}4b,{16}1/6,{8},{16}2/5,{8},3-8[8:1]/4-7[8:1],,4/3,
,5/3,6/2,7/1,{4}5b/3b,4/7,
{16}6,4,{8}5,{16}4/5,{8},{16}6/3,{8},1pp4[8:5]/8qq5[8:5],{1},{4}1-4[8:1],
{8}8,8,{4}1/8-5[8:1],{8}1-4[8:1],1,{4}1<6[8:1],
1>4[8:1],1w5[8:1],1b,8-5[8:1],
{8}1,1,{4}8/1-4[8:1],{8}8-5[8:1],8,{4}8>3[8:1],
8<5[8:1],8w4[8:1],8b,{16}1-5[8:1],8,2,7,
1b,Cf,{8},{16}8/3,{8},{16}7/4,{8},6-1[8:1]/5-2[8:1],,5/6,
,4/6,3/7,2/8,{4}4b/6b,{8}3,3,
3,{16}3,4,{8}5,5,2,2,{16}2b,4,3,7b,
5,6,1b,3,2,8b,6,7,1b-5[8:1],1b,1b,1b,1b,Cf,{1},,,{4},,{8},{4}6h[4:3],
5,
4,3h[2:1],,4,
5,6,{8}6/3,3h[8:7]/6h[1:1],
E
