&title=Karma
&artist=Fumage
&first=1.06
&des=Ragna
&des_5=Ragna
&lv_5=14
&inote_5=(175){8}
,,,,,,,,
||Intro
(7/4
*3
=>
3/4
=>
5/4
=>
3/8)
4h[8:3],,,B5h[8:7],,,B3h[4:3],,,,,,,,
5h[8:3],,,A3h[1:1]/B3h[8:9],,,B7h[8:7]/A7h[1:1],,,,,,,,
,,3h[8:1],5h[8:1],2-6[8:1],4h[8:1],2,,7h[8:1],5h[8:1],6h[8:1],3h[8:1],4h[8:1],2h[8:1],
8^5[8:1],5,8,1^4[8:1],4pp3^2-8[1:1]b,1,
A7h[8:10]/D7h[8:11]/E7h[8:12],,,,,,,,,,
1h[1:0],2h[1:0],3h[1:0],
||A1
(7/4
*3
=>
9/4
=>
6/4)
4x/5xh[8:3],,3,2h[8:3],,4,C,,,,,6,5,4,
3,6,5,4h[8:3],,6,7h[8:3],,5V74[32:11],C,,,,,
2,3,4,5h[8:3],,3,2h[8:3],,4-6-3[32:11],C,,7,7,7,7h[8:14],B2,,4,
4v3[35#40:1],,1h[2:1],,,,,,,,{32}4bh[1:0],C,,,{8},
||A2
(7/4
*2
=>
9/4
=>
3/4
*4)
7-5[8:1],,3,2h[8:3],,4,C,,,,,7,6,3,
2,5,4,3-6[8:1],,6,7h[8:3],,5-8-6[32:11],C,,,,4,
4,4,5,6-4[8:1],,4,3-6[8:1],,5,7-3[8:1],,4,1-6-2[4:1],,6,4h[4:1],,,
1x-5[8:1]/6,,1xv4[8:1]/6v4[8:1],,1x-3[8:1]/6,,
1x-5[8:1]/7,,1xv4[8:1]/7v4[8:1],,1x-3[8:1]/7,,
1x-5[8:1]/8,,1xv4[8:1]/8-4[8:1],,1x-3[8:1]b/8,,
E6h[8:4]/B5h[8:3]/B6h[8:5]/1b,,,4h[1:0],3h[1:0],2h[1:0],
||B
(4/4)
1xV35[8:5]/7x,7,7,7,6,6,6>1[4:3],6,
7,7,7,6h[16:1],5,5,5,5,
6V82[8:5]/2,2,2,2,3,3,3>6[8:5],3,
4,4,4,5h[16:1],4,4,3,2,
1x^4[2:1]/5x,5,5,5,5,5,6,7,
5/8^5[2:1],5,5,4h[16:1],3,3,2,2,
1xh[4:1]/4x,4,4,2h[4:1]/5,5,5,3h[4:1]/4,4,
4,45,45,45,65,65,65,76,
76,76,75,74,73,62,61,68,
||Chorus
(4/4)
D1h[1024:1]/E1h[4:1]/A1h[4:2]/B1h[4:3]/A5,,A6,,A7,,A8,,
D2h[1024:1]/E2h[4:1]/A2h[4:2]/B2h[4:3]/A5,,A6,,A7,,A8,,
D3h[1024:1]/E3h[4:1]/A3h[4:2]/B3h[4:3]/A5,,A6,,A7,,A8,,
D4h[1024:1]/E4h[4:1]/A4h[4:2]/B4h[4:3]/A5,,A6,,A7,,A8,,
62,5,4,7h[8:1]/3^2-8[8:1],,3/4h[8:1],,15,
2,7h[8:1]/3^2-8[8:1],,3/4h[8:1],,15,26,37,
4/8h[8:1],4,4/6h[8:1],4,4/2h[8:1],4,4/7h[8:1],4,
4/1h[8:1],4,4/5h[8:1],4,2h[1:0]/6h[1:0],{24}1x,8x,1x,8x,1x,8x,1x,8x,1x,{8}
B1hf[4:1],,,7w3[8:1]b,,7,,1-5-7[512:109],
5v3[512:45]b*-7[512:45],1,,,28,83,84,5-1[8:1],
7-4[8:1],5,7,2-6[8:1],,2/4h[4:1],,7,
8,15,26,3v2^1[4:1]/7,4/8h[8:3],A3,B2,A1,
6x-8-5-1[256:103],,5xw1[256:39]*-1[256:39]b,5x,,E1/E2/D1/D2/A1f,,3x,
3x-1-4-8[256:103],,4xw8[256:39]*-8[256:39]b,4x,,E1/E8/D1/D8/A8f,,26,
63,64,5q2[32:5]/6,7,7h[4:1],,,{24}E8/3xh[4:1],E7,E6,
E5,E4,E3,E2,E1,E8,{8}E7h[8:4]/B7h[8:4]/B6h[8:4]/4x-1[8:1]b,,4x,,B2/B3/E3,,
||D
(5/4
*2
=>
6/4
*2
=>
7/4
*2
=>
8/4)
5,5h[4:1]/4,,4,4h[4:1]/5,,5pp4[4:5],,B4,,
3,3,,1,1,,3,3,3,3,{16}
5pp4[4:7],,E3,E2,E1h[4:1],,,,,E2,E3h[4:1],,,,,E2,E1h[4:1],,,,,E2,E3h[4:1],,
,,,E2,E1h[4:1],,,,,E2,E3,,5h[8:1],,3h[1:0],4h[1:0],3h[1:0],4h[1:0],2v5[8:1],,5,,2`B2f,,{8}
6^1[8:1]b,4,6,2q6[8:3],,6,6q2q6q2q6q2q6[8:18]b*q2q6q2q6q2[8:15]*q2q6q2q6[8:12]*q2q6q2[8:9]b*q2q6[8:6]b*q2[8:3],,8,8x,7x,6x,5x,,
E8,,5,5,,,E8/A8,,5,5,,,E8f/A8/B8,,
65,64,63,2pp1[16:5]b/6,,25,6V48[4:1],,6,{16}8xh[1:0],1xh[1:0],2xh[1:0],3xh[1:0],4xh[4:1],,1,8,7,6,5,4,
||Slowdown
Part
&
C
(4/4)
(135)
{8}3h[4:1]/2,2,2,
(120)
{8}1h[4:1]/8,8,8,
(110)
{8}7h[4:1]/6,6,6,
(100)
{8}5h[4:1]/4,4,4-8[22.7027027#64:1],
(75)
{8}1h[8:1]/7,
(175)
{6}D8h[6:1]/E8h[6:1],D2h[6:1]/E2h[6:1],D7h[6:1]/E7h[6:1],D1h[6:1]/E1h[6:1],
{8}D5h[8:1]/E5h[8:1],D3h[8:1]/E3h[8:1],D6h[8:1]/E6h[8:1],D4h[8:1]/E4h[8:1],
{12}Ch[12:1],A2h[12:1],A6h[12:1],4b,
{8},,
,,E6,,,,E7,,
,,E8,,,,E1,,
,,E2,,,,E3,,
,,E4,,,6,5,4,
35,2,8,3v8[8:1]b/7^6-4[8:1],,37,,15,
6,3v8[8:1]/7^6-4[8:1]b,,37,,15,26,37,
4h[1:0]/8,3h[1:0]/8,2h[1:0]/8,1h[1:0]/8,
7h[1:0]/8,6h[1:0]/8,5h[1:0]/8,4h[1:0]/8,
7h[1:0]/5,6/8h[1:0],
(150)
{8}7/1h[1:0],2h[1:0]/8,1/3h[1:0],{24}4x,5x,4x,5x,4x,5x,
(100)
{24}4x,5x,4x,
||Chorus2
(4/4)
(175){8}
B5h[4:1]f,,,1w5[8:1]b,,1,,7-5-3[4:1],
5v6[8:1]b*-3[8:1],7,,,27,73,74,5^2[8:1],
8-4[8:1],5,8,1-5[8:1],,1/6h[4:1],,4,
3,12,38,4v3-1[4:1]/7,5/6h[8:3],A4,B3,A1,
5xv2-4-8[256:102],,4xw8[256:38]*-8[256:38]b,4x,,E1/E8/D1/D8/A8f,,4x,
4xv7-5-1[256:102],,5xw1[256:38]*-1[256:38]b,5x,,E1/E2/D1/D2/A1f,,73,
74,75,4p7[32:5]/6,35,2h[4:1]/4,,,{24}E2/6xh[4:1],E3,E4,
E5,E6,E7,E8,E1,E2,{8}E3h[8:4]/B2h[8:4]/B3h[8:4]/5x-8[8:1]b,,5x,,B7/B6/E7,,
||Outro
(4/4)
8x/1x-5[8:1],,16,8-4[8:1],,{24}8/A4,A3,A2,{8}1x-5[8:1]b,,
16,7-1[8:1],3,7-3-5[24:5],5,7,{24}A2,A1,A8,{8}7x^2[8:1]b,
,74,5-1-6[4:1],,54,{24}A2,A3,A4,{8}5x^2[8:1]b,,
57,8-6[8:1],1,8-4-6[24:5],5,8,2-6[8:1]b,1,
2x/7x-3[8:1],,73,2v5[8:1],1^6[8:1],2,1,3,
24,2,28,8,75,64,53,42,
1-5[8:1]/5,1,1/6-1[8:1],6,6/3^4-6[8:1],2,7-3[8:1]b/3,8-2[8:1]b,
7-5[8:1]b,8-4[8:1]b,7,8,7,2/8h[1:0],2h[1:0]/8,2/8h[1:0],
3h[8:1],E1h[8:1],4h[8:1],B7h[8:1],5h[8:1],D8h[8:1],3h[8:1],E1h[8:1],
5h[8:1],B7h[8:1],4h[8:1],D8h[8:1],3h[8:1],E1h[8:1],5h[8:1],C,
{1}
,
E
