&title=すれすれ
&artist=Leo/need × MEIKO
&first=0.01
&des=超级咲希大王
&des_5=超级咲希大王
&lv_5=13+
&inote_5=(86){4},{12},,,,,,,,,4,
{24}5,4h[8:1],,,{4}C,{12}5,{24}4,5h[8:1],,B3,{12}E3,{24}E2,D2,,,{12}8,
{24}1,8h[8:1],,,{4}C,{12}1,{24}8,1h[8:1],,B7,{12}E7,{24}E6,D6,,,{12}3,
{24}6,4h[8:1],,,{4}C,{12}6,{24}3,5h[8:1],,B3,{12}E3,{24}E2,D2,,,{12}7,
{24}2,8h[8:1],,3,{8}3h[8:1],8h[8:3],{4}1h[4:1],{96}E2`E8,B7`B2,B6`B3,E6`E4,{16},,,{64},{192},{12}8b/1b,
{24}2,4,,4,{8}3h[8:1],1,{12}8/2,{24}7,5,,5,{8}6h[8:1],8,
{12}7/1,{24}2,4,,4,{8}3h[8:1],1,{12}2/8,{24}7,5,,5,{12}4,{24}4,2,,2,
{12}8,{24}8,5,,5,{8}7h[8:1],6,8b/5b,4b/6b,5b/3b,8/1,
{12}7/2,{24}2,4,,4,{8}3/5,7/5,{12}8/2,2h[6:1],{24},,{8}4h[8:1],5h[8:1],
{12}7<4[8:1],{24}7,5,,,,,,,,,{12}7<4[8:1],{24}7,5,,,,,,,,,{12}2>5[8:1],
{24}2,4,,,,,,,,,{12}2>5[8:1],{24}2,4,,,,,,,,,{12}8>3[8:1],
{24}8,2,,,,,,,,,{12}8>3[8:1],{24}8,2,,,,,,,,,{12}8,
{24}8,5,,,{12}2,{24}2,4,,,{12}6,{24}6,5,,5,{12}7,{24}7,1,,,{8}2/8,
3,7/1,{24}6,,4<8[6:1],{12}5,{24}5,3h[8:1],,,,,,3,,3,
{8}6/4,{24}7,,5,{12}6,{24}6,3,,3<7[6:1],{12}4,{24}4,2h[8:1],,,,,,,,4,
{12}5pp4[24:5],{24}5,4,,,{4}3qq4[24:5],{24}3,,,,,5,{12}5xpp5b[32:5]*qq5b[32:5],4bx/6bx,,{4}5bx<1[8:1]*>1[8:1],
5bx,{12}7/2,{24}2,4,,4,{12}5,{24}5,7,,,{8}7/2-5[64:3],
{24}1/6-1[64:3],,2x,{12}5x,{24}6x,4x,,,{8}8/3-8[64:3],{24}4/7-4[64:3],,3x,{12}8x,{24}7x,1x,,,{8}5/2>5[64:3],
{24}1/6<1[64:3],,2x,{12}5x,{24}6x,4x,,,{8}8/3>8[64:3],{24}4/7<4[64:3],,3x,{12}8x,{24}1x,7x,,,{12}8/4,
{24}5,6/2,,3,{12}4/5,{24}6,5/7,,8/4,{12}3,{24}7,6/8,,3,{8}4/2,{24}5/1q2[24:11],,1/5p7[8:3],
,,,,,,,,,,,,,,,,,,{12}3/7,{24}4,6,,,{12}3b/7b<3[8:1],
{24}2,8,,3<1b[96:19],{8}7,2,{24}1s5[48:7],,,,,2,{4}2h[8:1],
{12}6/4>8[8:1],{24}7,5,,8>6b[96:19],{8}4,7,{24}6,,,,,7,1x,8,1,7x/2x,,2,
{12}4,{24}4,5,,5,{8}7,1/2-5[12:1],8b/7b-4[12:1],2b,7b>5[32:5],{24}3,,7,
{8}2bxq6[12:1],{24}1,,2,{8}6bx,{24}7,,8,{12}2,{24}2,1,,1,{8}2/8qq8[32:5],3/7,
{12}8/4-1[12:1],{24}3,3,,,{8}4/8>6b[6:1],7,{4}6p2[12:1],{8}7,8,
{12}1/7<3[8:1],{24}2,8,,3<1b[96:19],{8}7,2,1,{24}2,,3,5x,4,5,6x/3x,,7,
{12}1,{24}1,4,,4,{12}6,{24}6,8<5[12:1],,,{8}2b/1b>4[12:1],8b,1b<4[8:1],{24}6,,1,
{8}7bxp3[12:1],{24}8,,7,{8}3bx,{24}2,,1,7,8,6,3,4,2,8,1,6,5-8[24:13],,4-1[24:11],
{4},,,{96}E2`E8,B7`B2,B6`B3,E6`E4,{16},,,{64},{192},{12}8b,
{24}2,4,,4,{12}3,2/5h[6:1],,1,{24}7,5,,5,{12}6,5/4h[6:1],,8,
{24}2,1,,1,{12}3<6[12:1],2/7,{24},,{8}6/3,{24}7h[12:1],,5,{12}8z4[48:17],{24}8,2,,,{4}1-5[12:1],
1/Cf,{12}6/3,7/5,8/1,5/2,6/3,7/5,
8/1,{24}1,7,,7,{12}5,{24}5,4,,,{12}2/4,7/1,5/6,8/1-4<5[32:3],4/2,6/3,
{8}8/1<8-5[32:3],7,1/2pp3[8:1],3,2/6pp7[8:1],7,6/2,4,
{12}6/3,{24}2,1,,6,{8}5<4[16:3],4/6,{24}5/7,,,,,6h[24:1],{12}5,{24}7h[24:1],8,,6h[24:1],
{12}5xh[12:1],4xh[8:1],{24},2h[24:1],{12}1,{24}3h[24:1],4,,2h[24:1],{12}1xh[12:1],8xh[8:1],{24},6h[24:1],{12}5,{24}7h[24:1],8,,6h[24:1],
{12}5xh[12:1],4xh[8:1],{24},3,{8}5/2q7[8:1],{24}1,,8,2xh[8:1],,,,,8h[8:1],{12}6,{24}6,1,,1,
{12}3V52[6:1],{24}5,5,,,{12}7,8,{24},1h[8:1],,,3h[8:1],2,,8h[8:1],{12}1,{24}4h[8:1],5,,7h[8:1],
{12}6,{24}4,5/3,,6,{12}2/7,{24}1,8/6,,5,{12}4/3>6[32:5],2/5,{24},5h[24:7],,,,,,,4<7[8:1],
,,,,E3,{4}A3,{24}5>2[8:1],,,,,E7,{4}A6,
{24}4q8[8:1],,,,,E3,{4}A3,{24}5p1[8:1],,,,,E7,{8}A6,E6,
2h[8:1],4h[8:1],8h[8:1],6h[8:1],{192}5pp5[32:5],5?qq5[192:29],{16},,,{64},,,{192},{4}5/5!pp5[0##0.4361]*qq5[0##0.4361],
Ch[4:1]/3b<6b[12:1],A8/B8/B1/A1/E1f,{24}3,5,2,7,{12}5h[12:1],{24}6-4[16:1],3,8,2h[12:1],,,{12}6/3-6[16:1],
{24}2,5,,3,{12}7<1b[32:5],{24}8,5,,7,4,,,,,3,8x,1,8,7x/2x,,2,
{12}4,{24}4,5,,5,{8}7,1/2-5[12:1],8b/7b-4[12:1],2b,7b>5[6:1],{24}3,,7,
{8}2bxq6[12:1],{24}1,,2,{8}8bxqq1[6:1],{24}7,,8,{8}4,{24}3,,2,8xqq8[32:5],1,7,2x,,,{12}8/1-4[16:1],
{24}2,2,,,{12}1/7<1b[32:5],{24}8,3,,7,{4}1v6[12:1],{8}3-5[16:1],2,
{12}3/6-3[16:1],{24}7,4,,6,{8}2>8b[32:5],1,{24}2/5h[8:1],,,,,6,{12}1,{24}1,8,,8,
{12}2/7,{24}3,5,,5,{8}7,2/1>4[12:1],7b/8b<5[12:1],1b,8b>5[8:1],{24}3,,8,
{8}2bxq6[12:1],{24}1,,2,{8}6bx,{24}7,,8,2,2,5,4,4,7,1,6,3,8h[12:1],,2,
{12}1b,{24}3,8,,4,6,5,5,7,,3,4b,2,2,5,,1/8,{8}7/2,{24}5-8[24:13]/4-1[24:13],,3/6,
{4},,,{96}E8/E2,B7/B2,B6/B3,E6/E4,{16},,,{64},{192},{12}1b/8b,
{24}7,5,,5,{8}6h[8:1],8,{12}1/7,{24}2,4,,4,{8}3h[8:1],1,
{12}2/8,{24}7,5,,5,{8}6h[8:1],8,{12}7/1,{24}2,4,,4,{12}5,{24}5,7,,7,
{12}1,{24}1,4,,4,{8}2h[8:1],1,2b/8b,5b/3b,4b/6bq2pp3[4:3],8-5[8:5],
E
