&title=SAINT OR SINNER
&artist=CRAYVXN
&first=0.02
&des_6=小奇諾
&lv_6=13+
&des=小奇諾
&inote_6=(164){1},
{4}6h[1:1],,,5,
2h[1:1],,,3,
4q5[1:1],,,,
,,{8},6,5,4,
{1}3p8[1:1],
{4},,{8},6,4,5,
{1}6q2[2:1]/3h[1:2],
{8}1,,,8,,,7,,
6h[4:1],,5,5,E7,5,,{16}4,5,
{8}3h[4:1],,4,4,1,2,3,,
5,5,E3,,6,5,1,4,
,2,3,,5,6,7,,
3h[4:1],,4,4,E3,4,,{16}5,4,
{8}6h[4:1],,5,5,8,7,6,,
4/6,4,B7,,3/5,3,B8,,
{1}4w8[8:5],
{8}6h[4:1],4,4,{16}5,4,{8}5h[4:1],3,3,{16}4,3,
{8}4h[4:1],2,2,{16}5,2,{8}5h[4:1],1,1,{16}2,4,
{8}3h[4:1],5,5,{16}4,5,{8}4h[4:1],6,6,{16}5,6,
{8}5h[4:1],7,7,{16}4,8,{8}4h[4:1],1,8,7,
4/6,4,4/2,4,3/5,3,3/1,3,
6/5,6,6/8,6,7/4,7,7/2,7,
{16}1,8,1,8,1,8,1,8,2,7,2,7,2,7,2,7,
{8}E3,,,E7,,,E5,,
3-5[16:1],7,7,{16}2,6,
{8}2-4[16:1],6,6,{16}1,5,
{8}1-3[16:1],5,5,{16}8,4,
{16}8-4[8:1],4,8,,{8}4,5,
6-4[16:1],2,2,{16}7,3,
{8}7-5[16:1],3,3,{16}8,4,
{8}8-6[16:1],4,4,{16}1,5,
{16}1-5[8:1],5,1,,{8}4,,
3^5[16:1],7,7,{16}2,6,
{8}2^4[16:1],6,6,{16}1,5,
{8}1^3[16:1],5,5,{16}8,4,
{16}8-4[8:1],4,8,,{8}4,5,
6^4[16:1],2,2,{16}7,3,
{8}7^5[16:1],3,3,{16}8,4,
{8}8^6[16:1],4,4,{16}1,5,
{16}1-5[8:1]b,5,1,,{8}4,,
3x-6[8:1],2,1/3,2,2x-5[8:1],1,8/2,1,
1x-4[8:1],8,7/1,8,8x-3[8:1],7,6/8,7,
6x-3[8:1],7,8/6,7,7x-4[8:1],8,1/7,8,
8x-5[8:1],1,2/8,1,1x-6[8:1],2,3/1,2,
3x^6[8:1],2,1/3,2,2x^5[8:1],1,8/2,1,
1x^4[8:1],8,7/1,8,8x^3[8:1],7,6/8,7,
6x^3[8:1],7,8/6,7,7x^4[8:1],8,1/7,8,
1b/7x,,{16}2-5[8:1]b,1,2,1,2,,,,,,,,
{8}6,4,5,3,{16}6,5,6,,3,4,3,,
{8}7,1,8,2,{16}7,8,7,,2,1,2,,
{8}6,5/7,3,2/4,{16}6,5,7,,3,4,2,,
{8}7,6/8,2,3/1,{16}7,8,6,,2,1,3,,
6,5,7,5,6,,3,4,2,4,3,,7h[16:1],,5x,,
3,4,2,4,3,,6,5,7,5,6,,2h[16:1],,4x,,
6,4,7,5,8h[16:1],,8x,,3,5,2,4,1h[16:1],,8h[16:1],,
{4}7,8,1,2,
{8}3V15V74-2[1:1],,5,6,7,8,1,,
{2}2V84V63[4:3],7,
{8}E8h[4:5],,,E1h[8:5],,,E7h[8:3],,
,,,,,,2x,1,
{8}7V51V38-6[1:1],,1,2,3,4,5,,
{8}E4,E4,E4,,B8,B8,B8,,
E4h[1:1]f,,,E3h[8:5],,,E5h[4:1],,
{2}B7,{4},{8}6,7,
8V64V27V51[1:1],,,,,,3,2,
1-6V48[4:3],,,,,1,2,3,
E5h[4:5],,,C1h[8:5],,,E1h[8:3],,
,,,,E7,E3,,,
1-6V48[4:3],,,,,,8,7,
6-1V74[4:3],,,,,E4,E3,E2,
{1}E1h[1:1],
5w1[8:5],
{8}6,5,3,4,7,3,4,5,
6,2,5,3,5,4,5,6,
B2,5,3,4,B8,3,4,5,
C1,4,6,5,E3h[4:1],,E7,,
5/7,6,3,4,6/5,4,3,2,
1/6,7,8/4,3,2/8,7,1/6,2,
{16}7x,2,7,2x,7,2,7x,2,8x,1,8,1x,8,1,8x,1,
{8}E1,,,E3/E7,,,E5,,
{8}E7h[2:1],1,2-5[8:1]b,,{32},B7,B8,E1,{8},1x,5,
{8}E4h[2:1],6,7-4[8:1]b,8,{32},B3,B2,B1,{8},8x,4,
{8}E6h[2:1],8,1>4[8:1]b,,{32},B6,B7,E8,{8},5x,1,
{8}E3h[2:1],8,7-4[8:1]b,,{32},B2,B1,E1,{8},5x,1,
{8}E7h[2:1],2,3-8[8:1]b,,{32},B6,B5,E5,{8},4x,8,
{8}B1h[2:1],5,6-1[8:1]b,,{32},B2,E3,A3,{8},8x,3,
{16}E1h[4:1]f,,,2xh[16:3],{32},E2,E3,E4,{8}E5,{16}6h[8:1],,3,7h[8:1],,4,8,,
{16}1b/5b,,,3b/7b,,,C1h[8:1]f,,{8},4x/5x,4x/5x,4x/5x,
{8}E3h[2:1],8,7-4[8:1]b,,{32},B2,B1,E1,{8},8x,4,
{8}E6h[2:1],3,2-5[8:1]b,1,{32},B6,B7,B8,{8},1x,5,
{8}E4h[2:1],1,8<5[8:1]b,,{32},B3,B2,B1,{8},4x,8,
{8}E7h[2:1],1,2-5[8:1]b,,{32},B7,B8,B1,{16}E6,E7,E8,E1,E2,E3,
{8}E4h[2:1],7,6-1[8:1]b,,{32},B4,B5,E6,{8},5x,1,
{8}B8h[2:1],4,3-8[8:1]b,,{32},B7,E7,A6,{8},5x,1,
{16}2/4,,,5/7,,,1/8,,7/6,,,2/3,,,4/5,,
E3h[8:7],,,E7h[16:9],,,E1h[8:2],,{2},
{8}6x,1/7,2/8,,{32}7b,E7,B6,B5,E5,,1b,E2,B2,B3,E4,,B8h[1:0],,,,
2b,E3,B3,B4,E5,,8b,E8,B7,B6,E6,,B1h[1:0],,,,
7b,B7,C1,B3,A3h[8:1]f,,,,{8}1,4,
2/5,6,2-6[8:1]b,E8h[16:5],{16}2x,,,{32},E7,E6,E5,,,1x,B1,C1,B5,
{8}A5,7/4,{16}6,5,6,,{8}4,3,2-4[8:1],{16}8,1,
{8}7-5[8:1],6,1-5[8:1],2,8-4[8:1],7,3-1[8:1],2,
8-6[8:1],7,4-8[8:1],3,5-1[8:1],6,4-7[8:1],3,
6-2[8:1],5,8-4[8:1],1,7-3[8:1],6,1-5[1:1]*w5[1:1],2x,
{1},
E
